Close to Home | Paper Princess (versione italiana) | Download Supernatural [Season 10 Episode 19] – The Werther Project

Скачать через торрент Плеяда семи звёзд Shichisei no Subaru бесплатно Аниме Все серии на русском torrent

Статистика раздачи
Размер:  290 MB   |    Зарегистрирован:  9 дней   |    .torrent скачан:  12 раз   |   
Раздают:  1  
   
загрузка...
 
Автор Сообщение

Galfimbul

avatar Galfimbul



Страна: Япония
Год выпуска: 2018
Жанр: Экшен, Фэнтези, Фантастика
Тип: TV
Продолжительность: ?? эп. ~24 мин
Режиссер: Ёсито Нисёдзи
Студия:
Озвучка: Двухголосая / AniLibria
—Lupin(муж)
—Cleo-chan(жен)
Перевод: Sovet Romantica
Описание: Онлайн-игры в жанре MMORPG пользуются широкой популярностью во всём мире. В одной из таких игр под названием "Юнион” существовала гильдия "Субару”. Эта гильдия была воистину легендарной, слава о её могуществе быстро разнеслась по всей планете. Но кто бы мог подумать, что за экранами мониторов сидят обычные ученики начальных классов, и к тому же лучшие друзья в реальной жизни. "Субару” так бы и продолжала свои блистательные деньки, если бы не один ужасный инцидент. Однажды одна из членов гильдии по имени Асахи умерла в игре и одновременно с этим погибла по-настоящему.
После этого случая "Юнион” закрыли, а лучшие друзья постепенно отдалились друг от друга и потеряли былую связь. Шесть лет спустя, когда новости о погибшем игроке постепенно подзабылись, "Юнион” решает вернуться на рынок онлайн-игр под именем "РеЮнион”. Харуто Ямамото, один из бывших членов "Субару”, регистрируется в игре и с огромным удивлением обнаруживает там погибшую Асахи, живую и здоровую. Это сетевой призрак? Или же Асахи на самом деле жива? Об этом Харуто ещё лишь предстоит узнать.
Информационные ссылки:: AniDB | MyAnimeList | World Art
<div class="post-box-default">
<div class="post-box">Качество: HDTVRip
Тип релиза: Без хардсаба
Формат видео: MKV
Автор рипа: Ohys-Raws
Видео: AVC, 8 bits, 1280x720, 1500~ kbps, 23,976 fps
Аудио: RUS, AAC, 48000 Hz, 128 kbps, 2 ch; Язык Русский (в составе контейнера) ;
Аудио 2: JAP, AAC, 48000 Hz, 125 kbps, 2 ch;
Субтитры: RUS, ASS (надписи + полные, в составе контейнера) Sovet Romantica (Звёзда33)</div>
</div>
Формат : MatroskaВерсия формата : Version 4 / Version 2Размер файла : 290 МбайтПродолжительность : 24 м. 10 с.Общий поток : 1679 Кбит/секДата кодирования : UTC 2018-07-07 13:56:57Программа кодирования : mkvmerge v22.0.0 ('At The End Of The World') 64-bitБиблиотека кодирования : libebml v1.3.5 + libmatroska v1.4.8Attachments : 11802.ttf / OpenSans-Semibold.ttf / V_AUGIE_V1.03.TTF / OpenSans-Semibold.ttf

ВидеоИдентификатор : 1Формат : AVCФормат/Информация : Advanced Video CodecПрофиль формата : [email protected]Настройки формата : CABAC / 5 Ref FramesПараметр CABAC формата : ДаПараметр RefFrames формата : 5 кадровИдентификатор кодека : V_MPEG4/ISO/AVCПродолжительность : 24 м. 9 с.Битрейт : 1418 Кбит/секШирина : 1280 пикселейВысота : 720 пикселейСоотношение сторон : 16:9Режим частоты кадров : ПостоянныйЧастота кадров : 23,976 (24000/1001) кадра/секЦветовое пространство : YUVСубдискретизация насыщенности : 4:2:0Битовая глубина : 8 битТип развёртки : ПрогрессивнаяБит/(Пиксели*Кадры) : 0.064Размер потока : 245 Мбайт (84%)Язык : JapaneseDefault : ДаForced : ДаЦветовой диапазон : LimitedОсновные цвета : BT.709Характеристики трансфера : BT.709Коэффициенты матрицы : BT.709

Аудио #1Идентификатор : 2Формат : AACФормат/Информация : Advanced Audio CodecПрофиль формата : LCИдентификатор кодека : A_AAC-2Продолжительность : 24 м. 10 с.Битрейт : 128 Кбит/секКаналы : 2 каналаРасположение каналов : Front: L RЧастота : 48,0 КГцЧастота кадров : 46,875 кадров/сек (1024 SPF)Метод сжатия : С потерямиРазмер потока : 22,1 Мбайт (8%)Заголовок : Lupin & Cleo-chanЯзык : RussianDefault : ДаForced : Да

Аудио #2Идентификатор : 3Формат : AACФормат/Информация : Advanced Audio CodecПрофиль формата : LCИдентификатор кодека : A_AAC-2Продолжительность : 24 м. 9 с.Битрейт : 125 Кбит/секКаналы : 2 каналаРасположение каналов : Front: L RЧастота : 48,0 КГцЧастота кадров : 46,875 кадров/сек (1024 SPF)Метод сжатия : С потерямиРазмер потока : 21,7 Мбайт (7%)Заголовок : OriginalЯзык : JapaneseDefault : НетForced : Нет

Текст #1Идентификатор : 4Формат : ASSИдентификатор кодека : S_TEXT/ASSИдентификатор кодека/Информация : Advanced Sub Station AlphaПродолжительность : 11 м. 21 с.Битрейт : 71 бит/секElementCount : 40Метод сжатия : Без потерьРазмер потока : 5,94 Кбайт (0%)Заголовок : НадписиЯзык : RussianDefault : ДаForced : Да

Текст #2Идентификатор : 5Формат : ASSИдентификатор кодека : S_TEXT/ASSИдентификатор кодека/Информация : Advanced Sub Station AlphaПродолжительность : 23 м. 36 с.Битрейт : 822 бит/секElementCount : 1168Метод сжатия : Без потерьРазмер потока : 142 Кбайт (0%)Заголовок : Sovet RomanticaЯзык : RussianDefault : НетForced : Нет

01. Reunion and Restart (Семь Чувств Воссоединения)
02. Untold Feelings (Невысказанные чувства)
03.
04.
05.
06.
07.
08.
09.
10.
11.
12.
13. ...


Добавлена 1 серия

Трекер:  [ 07-Июл-2018 17:30 ]

  

Скачать .torrent

Размер .torrent файла 12 KB


Размер: 290 MB
Хэш (hash) релиза: d94d761233ebb0f24eeafb5d2dab781bbcb59b5f
Подписка на обновления:

Еще никто не оставлял запись к записи скачать торрент Плеяда семи звёзд Shichisei no Subaru . Будь первым!

!Обратная связь