Facebook Marketing | Le Témoin Du Mal | Secret Diary Of A Call Girl

Скачать через торрент Меч-2 Сезон: 2 Фильм бесплатно в хорошем качестве torrent

Скачивайте на UnionPeer.org фильмы через торрент без регистрации. Новинки кино в хорошем качестве через торрент. На UnionPeer.org можно скачать через торрент фильмы 2014 и 2015 годов. Самые новые фильмы.

Скачать торрент Меч-2 Сезон: 2 бесплатно через .torrent фильм мультфильм сериал

Статистика раздачи
Размер:  8.87 GB   |    Зарегистрирован:  10 дней   |    .torrent скачан:  48 раз   |   
Раздают:  2  
   
загрузка...
 
Автор Сообщение

Galfimbul

avatar Galfimbul


Меч-2

Год выпуска: 2015
Производство: DixiMedia
Жанр: Боевик, Детектив
Продолжительность: 45х20
Субтитры: нет

Режиссёр: Алексей Луканев

В ролях: Эдуард Флёров, Роман Курцын, Дарья Повереннова, Александр Фисенко, Нина Гогаева, Виктория Фишер, Владислав Павлов,
Максим Щеголев,Тимур Ефременков, Анна Шевченко

Описание: Карательная организация «Меч», созданная для борьбы с преступниками, ушедшими от правосудия, постепенно восстанавливается. Максим Калинин, получивший тяжелые ранения, постепенно приходит в себя и собирает новую команду. Часть ее — знакомые люди, часть — новые, не менее преданные делу герои. Вместе они снова будут противостоять преступности на улицах Москвы. Участники «Меча» по-прежнему находятся на грани: с одной стороны, криминальный мир, который объявляет огромные деньги за их поимку, с другой — правоохранительные органы, которые охотятся на «оборотней».

Реклама: Нет

Качество: HDTVRip 720p
Формат: MP4
Видео кодек: H.264
Аудио кодек: AAC
Видео: H.264 / 1280x720 / 25fps / ~1362kbps / ~0.06 bit/pixel
Аудио: AAC / 44.1Hz / 2ch / 126kbps
Общее
Полное имя : D:\mech.2.2015.HDTVRip.720p\mech.2.00.prolog.2015.HDTVRip.720p.mp4
Формат : MPEG-4
Профиль формата : Base Media / Version 2
Идентификатор кодека : mp42 (isom/mp42)
Размер файла : 243 Мбайт
Продолжительность : 22 м. 44 с.
Режим общего битрейта : Переменный
Общий поток : 1491 Кбит/сек
Дата кодирования : UTC 2018-07-04 16:57:50
Дата пометки : UTC 2018-07-04 16:57:50
gsst : 0
gstd : 1364265

Видео
Идентификатор : 1
Формат : AVC
Формат/Информация : Advanced Video Codec
Профиль формата : [email protected]
Настройки формата : CABAC / 3 Ref Frames
Параметр CABAC формата : Да
Параметр RefFrames формата : 3 кадра
Идентификатор кодека : avc1
Идентификатор кодека/Информация : Advanced Video Coding
Продолжительность : 22 м. 44 с.
Битрейт : 1362 Кбит/сек
Ширина : 1280 пикселей
Высота : 720 пикселей
Соотношение сторон : 16:9
Режим частоты кадров : Постоянный
Частота кадров : 25,000 кадров/сек
Цветовое пространство : YUV
Субдискретизация насыщенности : 4:2:0
Битовая глубина : 8 бит
Тип развёртки : Прогрессивная
Бит/(Пиксели*Кадры) : 0.059
Размер потока : 222 Мбайт (91%)
Заголовок : ISO Media file produced by Google Inc. Created on: 07/04/2018.
Дата кодирования : UTC 2018-07-04 16:57:50
Дата пометки : UTC 2018-07-04 16:57:50
Цветовой диапазон : Limited
Основные цвета : BT.709
Характеристики трансфера : BT.709
Коэффициенты матрицы : BT.709

Аудио
Идентификатор : 2
Формат : AAC
Формат/Информация : Advanced Audio Codec
Профиль формата : LC
Идентификатор кодека : mp4a-40-2
Продолжительность : 22 м. 44 с.
Вид битрейта : Переменный
Битрейт : 126 Кбит/сек
Каналы : 2 канала
Расположение каналов : Front: L R
Частота : 44,1 КГц
Частота кадров : 43,066 кадра/сек (1024 SPF)
Метод сжатия : С потерями
Размер потока : 20,4 Мбайт (8%)
Заголовок : ISO Media file produced by Google Inc. Created on: 07/04/2018.
Дата кодирования : UTC 2018-07-04 16:57:50
Дата пометки : UTC 2018-07-04 16:57:50

Общее
Полное имя : D:\mech.2.2015.HDTVRip.720p\mech.2.01.seria.2015.HDTVRip.720p.mp4
Формат : MPEG-4
Профиль формата : Base Media / Version 2
Идентификатор кодека : mp42 (isom/mp42)
Размер файла : 439 Мбайт
Продолжительность : 44 м. 21 с.
Режим общего битрейта : Переменный
Общий поток : 1385 Кбит/сек
Дата кодирования : UTC 2018-07-04 17:03:18
Дата пометки : UTC 2018-07-04 17:03:18
gsst : 0
gstd : 2661842

Видео
Идентификатор : 1
Формат : AVC
Формат/Информация : Advanced Video Codec
Профиль формата : [email protected]
Настройки формата : CABAC / 3 Ref Frames
Параметр CABAC формата : Да
Параметр RefFrames формата : 3 кадра
Идентификатор кодека : avc1
Идентификатор кодека/Информация : Advanced Video Coding
Продолжительность : 44 м. 21 с.
Битрейт : 1256 Кбит/сек
Ширина : 1280 пикселей
Высота : 720 пикселей
Соотношение сторон : 16:9
Режим частоты кадров : Постоянный
Частота кадров : 25,000 кадров/сек
Цветовое пространство : YUV
Субдискретизация насыщенности : 4:2:0
Битовая глубина : 8 бит
Тип развёртки : Прогрессивная
Бит/(Пиксели*Кадры) : 0.055
Размер потока : 398 Мбайт (91%)
Заголовок : ISO Media file produced by Google Inc. Created on: 07/04/2018.
Дата кодирования : UTC 2018-07-04 17:03:18
Дата пометки : UTC 2018-07-04 17:03:18
Цветовой диапазон : Limited
Основные цвета : BT.709
Характеристики трансфера : BT.709
Коэффициенты матрицы : BT.709

Аудио
Идентификатор : 2
Формат : AAC
Формат/Информация : Advanced Audio Codec
Профиль формата : LC
Идентификатор кодека : mp4a-40-2
Продолжительность : 44 м. 21 с.
Вид битрейта : Переменный
Битрейт : 126 Кбит/сек
Каналы : 2 канала
Расположение каналов : Front: L R
Частота : 44,1 КГц
Частота кадров : 43,066 кадра/сек (1024 SPF)
Метод сжатия : С потерями
Размер потока : 39,9 Мбайт (9%)
Заголовок : ISO Media file produced by Google Inc. Created on: 07/04/2018.
Дата кодирования : UTC 2018-07-04 17:03:18
Дата пометки : UTC 2018-07-04 17:03:18

Общее
Полное имя : D:\mech.2.2015.HDTVRip.720p\mech.2.02.seria.2015.HDTVRip.720p.mp4
Формат : MPEG-4
Профиль формата : Base Media / Version 2
Идентификатор кодека : mp42 (isom/mp42)
Размер файла : 482 Мбайт
Продолжительность : 47 м. 5 с.
Режим общего битрейта : Переменный
Общий поток : 1430 Кбит/сек
Дата кодирования : UTC 2018-07-04 17:11:00
Дата пометки : UTC 2018-07-04 17:11:00
gsst : 0
gstd : 2825287

Видео
Идентификатор : 1
Формат : AVC
Формат/Информация : Advanced Video Codec
Профиль формата : [email protected]
Настройки формата : CABAC / 3 Ref Frames
Параметр CABAC формата : Да
Параметр RefFrames формата : 3 кадра
Идентификатор кодека : avc1
Идентификатор кодека/Информация : Advanced Video Coding
Продолжительность : 47 м. 5 с.
Битрейт : 1301 Кбит/сек
Ширина : 1280 пикселей
Высота : 720 пикселей
Соотношение сторон : 16:9
Режим частоты кадров : Постоянный
Частота кадров : 25,000 кадров/сек
Цветовое пространство : YUV
Субдискретизация насыщенности : 4:2:0
Битовая глубина : 8 бит
Тип развёртки : Прогрессивная
Бит/(Пиксели*Кадры) : 0.056
Размер потока : 438 Мбайт (91%)
Заголовок : ISO Media file produced by Google Inc. Created on: 07/04/2018.
Дата кодирования : UTC 2018-07-04 17:11:00
Дата пометки : UTC 2018-07-04 17:11:00
Цветовой диапазон : Limited
Основные цвета : BT.709
Характеристики трансфера : BT.709
Коэффициенты матрицы : BT.709

Аудио
Идентификатор : 2
Формат : AAC
Формат/Информация : Advanced Audio Codec
Профиль формата : LC
Идентификатор кодека : mp4a-40-2
Продолжительность : 47 м. 5 с.
Вид битрейта : Переменный
Битрейт : 126 Кбит/сек
Каналы : 2 канала
Расположение каналов : Front: L R
Частота : 44,1 КГц
Частота кадров : 43,066 кадра/сек (1024 SPF)
Метод сжатия : С потерями
Размер потока : 42,3 Мбайт (9%)
Заголовок : ISO Media file produced by Google Inc. Created on: 07/04/2018.
Дата кодирования : UTC 2018-07-04 17:11:00
Дата пометки : UTC 2018-07-04 17:11:00

Общее
Полное имя : D:\mech.2.2015.HDTVRip.720p\mech.2.03.seria.2015.HDTVRip.720p.mp4
Формат : MPEG-4
Профиль формата : Base Media / Version 2
Идентификатор кодека : mp42 (isom/mp42)
Размер файла : 494 Мбайт
Продолжительность : 45 м. 51 с.
Режим общего битрейта : Переменный
Общий поток : 1506 Кбит/сек
Дата кодирования : UTC 2018-07-04 17:15:40
Дата пометки : UTC 2018-07-04 17:15:40
gsst : 0
gstd : 2751494

Видео
Идентификатор : 1
Формат : AVC
Формат/Информация : Advanced Video Codec
Профиль формата : [email protected]
Настройки формата : CABAC / 3 Ref Frames
Параметр CABAC формата : Да
Параметр RefFrames формата : 3 кадра
Идентификатор кодека : avc1
Идентификатор кодека/Информация : Advanced Video Coding
Продолжительность : 45 м. 51 с.
Битрейт : 1377 Кбит/сек
Ширина : 1280 пикселей
Высота : 720 пикселей
Соотношение сторон : 16:9
Режим частоты кадров : Постоянный
Частота кадров : 25,000 кадров/сек
Цветовое пространство : YUV
Субдискретизация насыщенности : 4:2:0
Битовая глубина : 8 бит
Тип развёртки : Прогрессивная
Бит/(Пиксели*Кадры) : 0.060
Размер потока : 452 Мбайт (91%)
Заголовок : ISO Media file produced by Google Inc. Created on: 07/04/2018.
Дата кодирования : UTC 2018-07-04 17:15:40
Дата пометки : UTC 2018-07-04 17:15:40
Цветовой диапазон : Limited
Основные цвета : BT.709
Характеристики трансфера : BT.709
Коэффициенты матрицы : BT.709

Аудио
Идентификатор : 2
Формат : AAC
Формат/Информация : Advanced Audio Codec
Профиль формата : LC
Идентификатор кодека : mp4a-40-2
Продолжительность : 45 м. 51 с.
Вид битрейта : Переменный
Битрейт : 126 Кбит/сек
Каналы : 2 канала
Расположение каналов : Front: L R
Частота : 44,1 КГц
Частота кадров : 43,066 кадра/сек (1024 SPF)
Метод сжатия : С потерями
Размер потока : 41,2 Мбайт (8%)
Заголовок : ISO Media file produced by Google Inc. Created on: 07/04/2018.
Дата кодирования : UTC 2018-07-04 17:15:40
Дата пометки : UTC 2018-07-04 17:15:40

Общее
Полное имя : D:\mech.2.2015.HDTVRip.720p\mech.2.04.seria.2015.HDTVRip.720p.mp4
Формат : MPEG-4
Профиль формата : Base Media / Version 2
Идентификатор кодека : mp42 (isom/mp42)
Размер файла : 489 Мбайт
Продолжительность : 45 м. 25 с.
Режим общего битрейта : Переменный
Общий поток : 1506 Кбит/сек
Дата кодирования : UTC 2018-07-04 17:16:35
Дата пометки : UTC 2018-07-04 17:16:35
gsst : 0
gstd : 2725929

Видео
Идентификатор : 1
Формат : AVC
Формат/Информация : Advanced Video Codec
Профиль формата : [email protected]
Настройки формата : CABAC / 3 Ref Frames
Параметр CABAC формата : Да
Параметр RefFrames формата : 3 кадра
Идентификатор кодека : avc1
Идентификатор кодека/Информация : Advanced Video Coding
Продолжительность : 45 м. 25 с.
Битрейт : 1377 Кбит/сек
Ширина : 1280 пикселей
Высота : 720 пикселей
Соотношение сторон : 16:9
Режим частоты кадров : Постоянный
Частота кадров : 25,000 кадров/сек
Цветовое пространство : YUV
Субдискретизация насыщенности : 4:2:0
Битовая глубина : 8 бит
Тип развёртки : Прогрессивная
Бит/(Пиксели*Кадры) : 0.060
Размер потока : 447 Мбайт (91%)
Заголовок : ISO Media file produced by Google Inc. Created on: 07/04/2018.
Дата кодирования : UTC 2018-07-04 17:16:35
Дата пометки : UTC 2018-07-04 17:16:35
Цветовой диапазон : Limited
Основные цвета : BT.709
Характеристики трансфера : BT.709
Коэффициенты матрицы : BT.709

Аудио
Идентификатор : 2
Формат : AAC
Формат/Информация : Advanced Audio Codec
Профиль формата : LC
Идентификатор кодека : mp4a-40-2
Продолжительность : 45 м. 25 с.
Вид битрейта : Переменный
Битрейт : 126 Кбит/сек
Каналы : 2 канала
Расположение каналов : Front: L R
Частота : 44,1 КГц
Частота кадров : 43,066 кадра/сек (1024 SPF)
Метод сжатия : С потерями
Размер потока : 40,8 Мбайт (8%)
Заголовок : ISO Media file produced by Google Inc. Created on: 07/04/2018.
Дата кодирования : UTC 2018-07-04 17:16:35
Дата пометки : UTC 2018-07-04 17:16:35

Общее
Полное имя : D:\mech.2.2015.HDTVRip.720p\mech.2.05.seria.2015.HDTVRip.720p.mp4
Формат : MPEG-4
Профиль формата : Base Media / Version 2
Идентификатор кодека : mp42 (isom/mp42)
Размер файла : 422 Мбайт
Продолжительность : 41 м. 17 с.
Режим общего битрейта : Переменный
Общий поток : 1431 Кбит/сек
Дата кодирования : UTC 2018-07-04 20:56:11
Дата пометки : UTC 2018-07-04 20:56:11
gsst : 0
gstd : 2477197

Видео
Идентификатор : 1
Формат : AVC
Формат/Информация : Advanced Video Codec
Профиль формата : [email protected]
Настройки формата : CABAC / 3 Ref Frames
Параметр CABAC формата : Да
Параметр RefFrames формата : 3 кадра
Идентификатор кодека : avc1
Идентификатор кодека/Информация : Advanced Video Coding
Продолжительность : 41 м. 17 с.
Битрейт : 1302 Кбит/сек
Ширина : 1280 пикселей
Высота : 720 пикселей
Соотношение сторон : 16:9
Режим частоты кадров : Постоянный
Частота кадров : 25,000 кадров/сек
Цветовое пространство : YUV
Субдискретизация насыщенности : 4:2:0
Битовая глубина : 8 бит
Тип развёртки : Прогрессивная
Бит/(Пиксели*Кадры) : 0.056
Размер потока : 384 Мбайт (91%)
Заголовок : ISO Media file produced by Google Inc. Created on: 07/04/2018.
Дата кодирования : UTC 2018-07-04 20:56:11
Дата пометки : UTC 2018-07-04 20:56:11
Цветовой диапазон : Limited
Основные цвета : BT.709
Характеристики трансфера : BT.709
Коэффициенты матрицы : BT.709

Аудио
Идентификатор : 2
Формат : AAC
Формат/Информация : Advanced Audio Codec
Профиль формата : LC
Идентификатор кодека : mp4a-40-2
Продолжительность : 41 м. 17 с.
Вид битрейта : Переменный
Битрейт : 126 Кбит/сек
Каналы : 2 канала
Расположение каналов : Front: L R
Частота : 44,1 КГц
Частота кадров : 43,066 кадра/сек (1024 SPF)
Метод сжатия : С потерями
Размер потока : 37,1 Мбайт (9%)
Заголовок : ISO Media file produced by Google Inc. Created on: 07/04/2018.
Дата кодирования : UTC 2018-07-04 20:56:11
Дата пометки : UTC 2018-07-04 20:56:11

Общее
Полное имя : D:\mech.2.2015.HDTVRip.720p\mech.2.06.seria.2015.HDTVRip.720p.mp4
Формат : MPEG-4
Профиль формата : Base Media / Version 2
Идентификатор кодека : mp42 (isom/mp42)
Размер файла : 439 Мбайт
Продолжительность : 43 м. 47 с.
Режим общего битрейта : Переменный
Общий поток : 1401 Кбит/сек
Дата кодирования : UTC 2018-07-04 21:01:54
Дата пометки : UTC 2018-07-04 21:01:54
gsst : 0
gstd : 2627779

Видео
Идентификатор : 1
Формат : AVC
Формат/Информация : Advanced Video Codec
Профиль формата : [email protected]
Настройки формата : CABAC / 3 Ref Frames
Параметр CABAC формата : Да
Параметр RefFrames формата : 3 кадра
Идентификатор кодека : avc1
Идентификатор кодека/Информация : Advanced Video Coding
Продолжительность : 43 м. 47 с.
Битрейт : 1272 Кбит/сек
Ширина : 1280 пикселей
Высота : 720 пикселей
Соотношение сторон : 16:9
Режим частоты кадров : Постоянный
Частота кадров : 25,000 кадров/сек
Цветовое пространство : YUV
Субдискретизация насыщенности : 4:2:0
Битовая глубина : 8 бит
Тип развёртки : Прогрессивная
Бит/(Пиксели*Кадры) : 0.055
Размер потока : 398 Мбайт (91%)
Заголовок : ISO Media file produced by Google Inc. Created on: 07/04/2018.
Дата кодирования : UTC 2018-07-04 21:01:54
Дата пометки : UTC 2018-07-04 21:01:54
Цветовой диапазон : Limited
Основные цвета : BT.709
Характеристики трансфера : BT.709
Коэффициенты матрицы : BT.709

Аудио
Идентификатор : 2
Формат : AAC
Формат/Информация : Advanced Audio Codec
Профиль формата : LC
Идентификатор кодека : mp4a-40-2
Продолжительность : 43 м. 47 с.
Вид битрейта : Переменный
Битрейт : 126 Кбит/сек
Каналы : 2 канала
Расположение каналов : Front: L R
Частота : 44,1 КГц
Частота кадров : 43,066 кадра/сек (1024 SPF)
Метод сжатия : С потерями
Размер потока : 39,3 Мбайт (9%)
Заголовок : ISO Media file produced by Google Inc. Created on: 07/04/2018.
Дата кодирования : UTC 2018-07-04 21:01:54
Дата пометки : UTC 2018-07-04 21:01:54

Общее
Полное имя : D:\mech.2.2015.HDTVRip.720p\mech.2.07.seria.2015.HDTVRip.720p.mp4
Формат : MPEG-4
Профиль формата : Base Media / Version 2
Идентификатор кодека : mp42 (isom/mp42)
Размер файла : 475 Мбайт
Продолжительность : 43 м. 30 с.
Режим общего битрейта : Переменный
Общий поток : 1526 Кбит/сек
Дата кодирования : UTC 2018-07-04 21:04:25
Дата пометки : UTC 2018-07-04 21:04:25
gsst : 0
gstd : 2610340

Видео
Идентификатор : 1
Формат : AVC
Формат/Информация : Advanced Video Codec
Профиль формата : [email protected]
Настройки формата : CABAC / 3 Ref Frames
Параметр CABAC формата : Да
Параметр RefFrames формата : 3 кадра
Идентификатор кодека : avc1
Идентификатор кодека/Информация : Advanced Video Coding
Продолжительность : 43 м. 30 с.
Битрейт : 1397 Кбит/сек
Ширина : 1280 пикселей
Высота : 720 пикселей
Соотношение сторон : 16:9
Режим частоты кадров : Постоянный
Частота кадров : 25,000 кадров/сек
Цветовое пространство : YUV
Субдискретизация насыщенности : 4:2:0
Битовая глубина : 8 бит
Тип развёртки : Прогрессивная
Бит/(Пиксели*Кадры) : 0.061
Размер потока : 435 Мбайт (92%)
Заголовок : ISO Media file produced by Google Inc. Created on: 07/04/2018.
Дата кодирования : UTC 2018-07-04 21:04:25
Дата пометки : UTC 2018-07-04 21:04:25
Цветовой диапазон : Limited
Основные цвета : BT.709
Характеристики трансфера : BT.709
Коэффициенты матрицы : BT.709

Аудио
Идентификатор : 2
Формат : AAC
Формат/Информация : Advanced Audio Codec
Профиль формата : LC
Идентификатор кодека : mp4a-40-2
Продолжительность : 43 м. 30 с.
Вид битрейта : Переменный
Битрейт : 126 Кбит/сек
Каналы : 2 канала
Расположение каналов : Front: L R
Частота : 44,1 КГц
Частота кадров : 43,066 кадра/сек (1024 SPF)
Метод сжатия : С потерями
Размер потока : 39,1 Мбайт (8%)
Заголовок : ISO Media file produced by Google Inc. Created on: 07/04/2018.
Дата кодирования : UTC 2018-07-04 21:04:25
Дата пометки : UTC 2018-07-04 21:04:25

Общее
Полное имя : D:\mech.2.2015.HDTVRip.720p\mech.2.08.seria.2015.HDTVRip.720p.mp4
Формат : MPEG-4
Профиль формата : Base Media / Version 2
Идентификатор кодека : mp42 (isom/mp42)
Размер файла : 464 Мбайт
Продолжительность : 44 м. 24 с.
Режим общего битрейта : Переменный
Общий поток : 1460 Кбит/сек
Дата кодирования : UTC 2018-07-04 21:08:11
Дата пометки : UTC 2018-07-04 21:08:11
gsst : 0
gstd : 2664745

Видео
Идентификатор : 1
Формат : AVC
Формат/Информация : Advanced Video Codec
Профиль формата : [email protected]
Настройки формата : CABAC / 3 Ref Frames
Параметр CABAC формата : Да
Параметр RefFrames формата : 3 кадра
Идентификатор кодека : avc1
Идентификатор кодека/Информация : Advanced Video Coding
Продолжительность : 44 м. 24 с.
Битрейт : 1331 Кбит/сек
Ширина : 1280 пикселей
Высота : 720 пикселей
Соотношение сторон : 16:9
Режим частоты кадров : Постоянный
Частота кадров : 25,000 кадров/сек
Цветовое пространство : YUV
Субдискретизация насыщенности : 4:2:0
Битовая глубина : 8 бит
Тип развёртки : Прогрессивная
Бит/(Пиксели*Кадры) : 0.058
Размер потока : 423 Мбайт (91%)
Заголовок : ISO Media file produced by Google Inc. Created on: 07/04/2018.
Дата кодирования : UTC 2018-07-04 21:08:11
Дата пометки : UTC 2018-07-04 21:08:11
Цветовой диапазон : Limited
Основные цвета : BT.709
Характеристики трансфера : BT.709
Коэффициенты матрицы : BT.709

Аудио
Идентификатор : 2
Формат : AAC
Формат/Информация : Advanced Audio Codec
Профиль формата : LC
Идентификатор кодека : mp4a-40-2
Продолжительность : 44 м. 24 с.
Вид битрейта : Переменный
Битрейт : 126 Кбит/сек
Каналы : 2 канала
Расположение каналов : Front: L R
Частота : 44,1 КГц
Частота кадров : 43,066 кадра/сек (1024 SPF)
Метод сжатия : С потерями
Размер потока : 39,9 Мбайт (9%)
Заголовок : ISO Media file produced by Google Inc. Created on: 07/04/2018.
Дата кодирования : UTC 2018-07-04 21:08:11
Дата пометки : UTC 2018-07-04 21:08:11

Общее
Полное имя : D:\mech.2.2015.HDTVRip.720p\mech.2.09.seria.2015.HDTVRip.720p.mp4
Формат : MPEG-4
Профиль формата : Base Media / Version 2
Идентификатор кодека : mp42 (isom/mp42)
Размер файла : 367 Мбайт
Продолжительность : 45 м. 44 с.
Режим общего битрейта : Переменный
Общий поток : 1121 Кбит/сек
Дата кодирования : UTC 2018-07-05 21:08:34
Дата пометки : UTC 2018-07-05 21:08:34
gsst : 0
gstd : 2744366

Видео
Идентификатор : 1
Формат : AVC
Формат/Информация : Advanced Video Codec
Профиль формата : [email protected]
Настройки формата : CABAC / 3 Ref Frames
Параметр CABAC формата : Да
Параметр RefFrames формата : 3 кадра
Идентификатор кодека : avc1
Идентификатор кодека/Информация : Advanced Video Coding
Продолжительность : 45 м. 44 с.
Битрейт : 992 Кбит/сек
Ширина : 1280 пикселей
Высота : 720 пикселей
Соотношение сторон : 16:9
Режим частоты кадров : Постоянный
Частота кадров : 25,000 кадров/сек
Цветовое пространство : YUV
Субдискретизация насыщенности : 4:2:0
Битовая глубина : 8 бит
Тип развёртки : Прогрессивная
Бит/(Пиксели*Кадры) : 0.043
Размер потока : 324 Мбайт (88%)
Заголовок : ISO Media file produced by Google Inc. Created on: 07/05/2018.
Дата кодирования : UTC 2018-07-05 21:08:34
Дата пометки : UTC 2018-07-05 21:08:34
Цветовой диапазон : Limited
Основные цвета : BT.709
Характеристики трансфера : BT.709
Коэффициенты матрицы : BT.709

Аудио
Идентификатор : 2
Формат : AAC
Формат/Информация : Advanced Audio Codec
Профиль формата : LC
Идентификатор кодека : mp4a-40-2
Продолжительность : 45 м. 44 с.
Продолжительность оригинала : 45 м. 44 с.
Вид битрейта : Переменный
Битрейт : 126 Кбит/сек
Каналы : 2 канала
Расположение каналов : Front: L R
Частота : 44,1 КГц
Частота кадров : 43,066 кадра/сек (1024 SPF)
Метод сжатия : С потерями
Размер потока : 41,1 Мбайт (11%)
Размер потока оригинала : 41,1 Мбайт (11%)
Заголовок : ISO Media file produced by Google Inc. Created on: 07/05/2018.
Дата кодирования : UTC 2018-07-05 21:08:34
Дата пометки : UTC 2018-07-05 21:08:34

Общее
Полное имя : D:\mech.2.2015.HDTVRip.720p\mech.2.10.seria.2015.HDTVRip.720p.mp4
Формат : MPEG-4
Профиль формата : Base Media / Version 2
Идентификатор кодека : mp42 (isom/mp42)
Размер файла : 479 Мбайт
Продолжительность : 43 м. 16 с.
Режим общего битрейта : Переменный
Общий поток : 1546 Кбит/сек
Дата кодирования : UTC 2018-07-05 21:13:02
Дата пометки : UTC 2018-07-05 21:13:02
gsst : 0
gstd : 2596594

Видео
Идентификатор : 1
Формат : AVC
Формат/Информация : Advanced Video Codec
Профиль формата : [email protected]
Настройки формата : CABAC / 3 Ref Frames
Параметр CABAC формата : Да
Параметр RefFrames формата : 3 кадра
Идентификатор кодека : avc1
Идентификатор кодека/Информация : Advanced Video Coding
Продолжительность : 43 м. 16 с.
Битрейт : 1417 Кбит/сек
Ширина : 1280 пикселей
Высота : 720 пикселей
Соотношение сторон : 16:9
Режим частоты кадров : Постоянный
Частота кадров : 25,000 кадров/сек
Цветовое пространство : YUV
Субдискретизация насыщенности : 4:2:0
Битовая глубина : 8 бит
Тип развёртки : Прогрессивная
Бит/(Пиксели*Кадры) : 0.062
Размер потока : 439 Мбайт (92%)
Заголовок : ISO Media file produced by Google Inc. Created on: 07/05/2018.
Дата кодирования : UTC 2018-07-05 21:13:02
Дата пометки : UTC 2018-07-05 21:13:02
Цветовой диапазон : Limited
Основные цвета : BT.709
Характеристики трансфера : BT.709
Коэффициенты матрицы : BT.709

Аудио
Идентификатор : 2
Формат : AAC
Формат/Информация : Advanced Audio Codec
Профиль формата : LC
Идентификатор кодека : mp4a-40-2
Продолжительность : 43 м. 16 с.
Вид битрейта : Переменный
Битрейт : 126 Кбит/сек
Каналы : 2 канала
Расположение каналов : Front: L R
Частота : 44,1 КГц
Частота кадров : 43,066 кадра/сек (1024 SPF)
Метод сжатия : С потерями
Размер потока : 38,9 Мбайт (8%)
Заголовок : ISO Media file produced by Google Inc. Created on: 07/05/2018.
Дата кодирования : UTC 2018-07-05 21:13:02
Дата пометки : UTC 2018-07-05 21:13:02

Общее
Полное имя : D:\mech.2.2015.HDTVRip.720p\mech.2.11.seria.2015.HDTVRip.720p.mp4
Формат : MPEG-4
Профиль формата : Base Media / Version 2
Идентификатор кодека : mp42 (isom/mp42)
Размер файла : 468 Мбайт
Продолжительность : 45 м. 43 с.
Режим общего битрейта : Переменный
Общий поток : 1430 Кбит/сек
Дата кодирования : UTC 2018-07-05 21:21:03
Дата пометки : UTC 2018-07-05 21:21:03
gsst : 0
gstd : 2743762

Видео
Идентификатор : 1
Формат : AVC
Формат/Информация : Advanced Video Codec
Профиль формата : [email protected]
Настройки формата : CABAC / 3 Ref Frames
Параметр CABAC формата : Да
Параметр RefFrames формата : 3 кадра
Идентификатор кодека : avc1
Идентификатор кодека/Информация : Advanced Video Coding
Продолжительность : 45 м. 43 с.
Битрейт : 1301 Кбит/сек
Ширина : 1280 пикселей
Высота : 720 пикселей
Соотношение сторон : 16:9
Режим частоты кадров : Постоянный
Частота кадров : 25,000 кадров/сек
Цветовое пространство : YUV
Субдискретизация насыщенности : 4:2:0
Битовая глубина : 8 бит
Тип развёртки : Прогрессивная
Бит/(Пиксели*Кадры) : 0.056
Размер потока : 426 Мбайт (91%)
Заголовок : ISO Media file produced by Google Inc. Created on: 07/05/2018.
Дата кодирования : UTC 2018-07-05 21:21:03
Дата пометки : UTC 2018-07-05 21:21:03
Цветовой диапазон : Limited
Основные цвета : BT.709
Характеристики трансфера : BT.709
Коэффициенты матрицы : BT.709

Аудио
Идентификатор : 2
Формат : AAC
Формат/Информация : Advanced Audio Codec
Профиль формата : LC
Идентификатор кодека : mp4a-40-2
Продолжительность : 45 м. 43 с.
Вид битрейта : Переменный
Битрейт : 126 Кбит/сек
Каналы : 2 канала
Расположение каналов : Front: L R
Частота : 44,1 КГц
Частота кадров : 43,066 кадра/сек (1024 SPF)
Метод сжатия : С потерями
Размер потока : 41,1 Мбайт (9%)
Заголовок : ISO Media file produced by Google Inc. Created on: 07/05/2018.
Дата кодирования : UTC 2018-07-05 21:21:03
Дата пометки : UTC 2018-07-05 21:21:03

Общее
Полное имя : D:\mech.2.2015.HDTVRip.720p\mech.2.12.seria.2015.HDTVRip.720p.mp4
Формат : MPEG-4
Профиль формата : Base Media / Version 2
Идентификатор кодека : mp42 (isom/mp42)
Размер файла : 450 Мбайт
Продолжительность : 43 м. 45 с.
Режим общего битрейта : Переменный
Общий поток : 1439 Кбит/сек
Дата кодирования : UTC 2018-07-05 21:21:45
Дата пометки : UTC 2018-07-05 21:21:45
gsst : 0
gstd : 2625573

Видео
Идентификатор : 1
Формат : AVC
Формат/Информация : Advanced Video Codec
Профиль формата : [email protected]
Настройки формата : CABAC / 3 Ref Frames
Параметр CABAC формата : Да
Параметр RefFrames формата : 3 кадра
Идентификатор кодека : avc1
Идентификатор кодека/Информация : Advanced Video Coding
Продолжительность : 43 м. 45 с.
Битрейт : 1310 Кбит/сек
Ширина : 1280 пикселей
Высота : 720 пикселей
Соотношение сторон : 16:9
Режим частоты кадров : Постоянный
Частота кадров : 25,000 кадров/сек
Цветовое пространство : YUV
Субдискретизация насыщенности : 4:2:0
Битовая глубина : 8 бит
Тип развёртки : Прогрессивная
Бит/(Пиксели*Кадры) : 0.057
Размер потока : 410 Мбайт (91%)
Заголовок : ISO Media file produced by Google Inc. Created on: 07/05/2018.
Дата кодирования : UTC 2018-07-05 21:21:45
Дата пометки : UTC 2018-07-05 21:21:45
Цветовой диапазон : Limited
Основные цвета : BT.709
Характеристики трансфера : BT.709
Коэффициенты матрицы : BT.709

Аудио
Идентификатор : 2
Формат : AAC
Формат/Информация : Advanced Audio Codec
Профиль формата : LC
Идентификатор кодека : mp4a-40-2
Продолжительность : 43 м. 45 с.
Вид битрейта : Переменный
Битрейт : 126 Кбит/сек
Каналы : 2 канала
Расположение каналов : Front: L R
Частота : 44,1 КГц
Частота кадров : 43,066 кадра/сек (1024 SPF)
Метод сжатия : С потерями
Размер потока : 39,3 Мбайт (9%)
Заголовок : ISO Media file produced by Google Inc. Created on: 07/05/2018.
Дата кодирования : UTC 2018-07-05 21:21:45
Дата пометки : UTC 2018-07-05 21:21:45

Общее
Полное имя : D:\mech.2.2015.HDTVRip.720p\mech.2.13.seria.2015.HDTVRip.720p.mp4
Формат : MPEG-4
Профиль формата : Base Media / Version 2
Идентификатор кодека : mp42 (isom/mp42)
Размер файла : 418 Мбайт
Продолжительность : 47 м. 7 с.
Режим общего битрейта : Переменный
Общий поток : 1241 Кбит/сек
Дата кодирования : UTC 2018-07-06 05:54:38
Дата пометки : UTC 2018-07-06 05:54:38
gsst : 0
gstd : 2827795

Видео
Идентификатор : 1
Формат : AVC
Формат/Информация : Advanced Video Codec
Профиль формата : [email protected]
Настройки формата : CABAC / 3 Ref Frames
Параметр CABAC формата : Да
Параметр RefFrames формата : 3 кадра
Идентификатор кодека : avc1
Идентификатор кодека/Информация : Advanced Video Coding
Продолжительность : 47 м. 7 с.
Битрейт : 1112 Кбит/сек
Ширина : 1280 пикселей
Высота : 720 пикселей
Соотношение сторон : 16:9
Режим частоты кадров : Постоянный
Частота кадров : 25,000 кадров/сек
Цветовое пространство : YUV
Субдискретизация насыщенности : 4:2:0
Битовая глубина : 8 бит
Тип развёртки : Прогрессивная
Бит/(Пиксели*Кадры) : 0.048
Размер потока : 375 Мбайт (90%)
Заголовок : ISO Media file produced by Google Inc. Created on: 07/05/2018.
Дата кодирования : UTC 2018-07-06 05:54:38
Дата пометки : UTC 2018-07-06 05:54:38
Цветовой диапазон : Limited
Основные цвета : BT.709
Характеристики трансфера : BT.709
Коэффициенты матрицы : BT.709

Аудио
Идентификатор : 2
Формат : AAC
Формат/Информация : Advanced Audio Codec
Профиль формата : LC
Идентификатор кодека : mp4a-40-2
Продолжительность : 47 м. 7 с.
Вид битрейта : Переменный
Битрейт : 126 Кбит/сек
Каналы : 2 канала
Расположение каналов : Front: L R
Частота : 44,1 КГц
Частота кадров : 43,066 кадра/сек (1024 SPF)
Метод сжатия : С потерями
Размер потока : 42,3 Мбайт (10%)
Заголовок : ISO Media file produced by Google Inc. Created on: 07/05/2018.
Дата кодирования : UTC 2018-07-06 05:54:38
Дата пометки : UTC 2018-07-06 05:54:38

Общее
Полное имя : D:\mech.2.2015.HDTVRip.720p\mech.2.14.seria.2015.HDTVRip.720p.mp4
Формат : MPEG-4
Профиль формата : Base Media / Version 2
Идентификатор кодека : mp42 (isom/mp42)
Размер файла : 401 Мбайт
Продолжительность : 43 м. 3 с.
Режим общего битрейта : Переменный
Общий поток : 1302 Кбит/сек
Дата кодирования : UTC 2018-07-06 05:58:50
Дата пометки : UTC 2018-07-06 05:58:50
gsst : 0
gstd : 2583428

Видео
Идентификатор : 1
Формат : AVC
Формат/Информация : Advanced Video Codec
Профиль формата : [email protected]
Настройки формата : CABAC / 3 Ref Frames
Параметр CABAC формата : Да
Параметр RefFrames формата : 3 кадра
Идентификатор кодека : avc1
Идентификатор кодека/Информация : Advanced Video Coding
Продолжительность : 43 м. 3 с.
Битрейт : 1172 Кбит/сек
Ширина : 1280 пикселей
Высота : 720 пикселей
Соотношение сторон : 16:9
Режим частоты кадров : Постоянный
Частота кадров : 25,000 кадров/сек
Цветовое пространство : YUV
Субдискретизация насыщенности : 4:2:0
Битовая глубина : 8 бит
Тип развёртки : Прогрессивная
Бит/(Пиксели*Кадры) : 0.051
Размер потока : 361 Мбайт (90%)
Заголовок : ISO Media file produced by Google Inc. Created on: 07/05/2018.
Дата кодирования : UTC 2018-07-06 05:58:50
Дата пометки : UTC 2018-07-06 05:58:50
Цветовой диапазон : Limited
Основные цвета : BT.709
Характеристики трансфера : BT.709
Коэффициенты матрицы : BT.709

Аудио
Идентификатор : 2
Формат : AAC
Формат/Информация : Advanced Audio Codec
Профиль формата : LC
Идентификатор кодека : mp4a-40-2
Продолжительность : 43 м. 3 с.
Вид битрейта : Переменный
Битрейт : 126 Кбит/сек
Каналы : 2 канала
Расположение каналов : Front: L R
Частота : 44,1 КГц
Частота кадров : 43,066 кадра/сек (1024 SPF)
Метод сжатия : С потерями
Размер потока : 38,7 Мбайт (10%)
Заголовок : ISO Media file produced by Google Inc. Created on: 07/05/2018.
Дата кодирования : UTC 2018-07-06 05:58:50
Дата пометки : UTC 2018-07-06 05:58:50

Общее
Полное имя : D:\mech.2.2015.HDTVRip.720p\mech.2.15.seria.2015.HDTVRip.720p.mp4
Формат : MPEG-4
Профиль формата : Base Media / Version 2
Идентификатор кодека : mp42 (isom/mp42)
Размер файла : 411 Мбайт
Продолжительность : 45 м. 48 с.
Режим общего битрейта : Переменный
Общий поток : 1255 Кбит/сек
Дата кодирования : UTC 2018-07-06 06:04:09
Дата пометки : UTC 2018-07-06 06:04:09
gsst : 0
gstd : 2748569

Видео
Идентификатор : 1
Формат : AVC
Формат/Информация : Advanced Video Codec
Профиль формата : [email protected]
Настройки формата : CABAC / 3 Ref Frames
Параметр CABAC формата : Да
Параметр RefFrames формата : 3 кадра
Идентификатор кодека : avc1
Идентификатор кодека/Информация : Advanced Video Coding
Продолжительность : 45 м. 48 с.
Битрейт : 1126 Кбит/сек
Ширина : 1280 пикселей
Высота : 720 пикселей
Соотношение сторон : 16:9
Режим частоты кадров : Постоянный
Частота кадров : 25,000 кадров/сек
Цветовое пространство : YUV
Субдискретизация насыщенности : 4:2:0
Битовая глубина : 8 бит
Тип развёртки : Прогрессивная
Бит/(Пиксели*Кадры) : 0.049
Размер потока : 369 Мбайт (90%)
Заголовок : ISO Media file produced by Google Inc. Created on: 07/05/2018.
Дата кодирования : UTC 2018-07-06 06:04:09
Дата пометки : UTC 2018-07-06 06:04:09
Цветовой диапазон : Limited
Основные цвета : BT.709
Характеристики трансфера : BT.709
Коэффициенты матрицы : BT.709

Аудио
Идентификатор : 2
Формат : AAC
Формат/Информация : Advanced Audio Codec
Профиль формата : LC
Идентификатор кодека : mp4a-40-2
Продолжительность : 45 м. 48 с.
Вид битрейта : Переменный
Битрейт : 126 Кбит/сек
Каналы : 2 канала
Расположение каналов : Front: L R
Частота : 44,1 КГц
Частота кадров : 43,066 кадра/сек (1024 SPF)
Метод сжатия : С потерями
Размер потока : 41,1 Мбайт (10%)
Заголовок : ISO Media file produced by Google Inc. Created on: 07/05/2018.
Дата кодирования : UTC 2018-07-06 06:04:09
Дата пометки : UTC 2018-07-06 06:04:09

Общее
Полное имя : D:\mech.2.2015.HDTVRip.720p\mech.2.16.seria.2015.HDTVRip.720p.mp4
Формат : MPEG-4
Профиль формата : Base Media / Version 2
Идентификатор кодека : mp42 (isom/mp42)
Размер файла : 382 Мбайт
Продолжительность : 45 м. 35 с.
Режим общего битрейта : Переменный
Общий поток : 1173 Кбит/сек
Дата кодирования : UTC 2018-07-06 06:09:11
Дата пометки : UTC 2018-07-06 06:09:11
gsst : 0
gstd : 2735914

Видео
Идентификатор : 1
Формат : AVC
Формат/Информация : Advanced Video Codec
Профиль формата : [email protected]
Настройки формата : CABAC / 3 Ref Frames
Параметр CABAC формата : Да
Параметр RefFrames формата : 3 кадра
Идентификатор кодека : avc1
Идентификатор кодека/Информация : Advanced Video Coding
Продолжительность : 45 м. 35 с.
Битрейт : 1043 Кбит/сек
Ширина : 1280 пикселей
Высота : 720 пикселей
Соотношение сторон : 16:9
Режим частоты кадров : Постоянный
Частота кадров : 25,000 кадров/сек
Цветовое пространство : YUV
Субдискретизация насыщенности : 4:2:0
Битовая глубина : 8 бит
Тип развёртки : Прогрессивная
Бит/(Пиксели*Кадры) : 0.045
Размер потока : 340 Мбайт (89%)
Заголовок : ISO Media file produced by Google Inc. Created on: 07/05/2018.
Дата кодирования : UTC 2018-07-06 06:09:11
Дата пометки : UTC 2018-07-06 06:09:11
Цветовой диапазон : Limited
Основные цвета : BT.709
Характеристики трансфера : BT.709
Коэффициенты матрицы : BT.709

Аудио
Идентификатор : 2
Формат : AAC
Формат/Информация : Advanced Audio Codec
Профиль формата : LC
Идентификатор кодека : mp4a-40-2
Продолжительность : 45 м. 35 с.
Вид битрейта : Переменный
Битрейт : 126 Кбит/сек
Каналы : 2 канала
Расположение каналов : Front: L R
Частота : 44,1 КГц
Частота кадров : 43,066 кадра/сек (1024 SPF)
Метод сжатия : С потерями
Размер потока : 41,0 Мбайт (11%)
Заголовок : ISO Media file produced by Google Inc. Created on: 07/05/2018.
Дата кодирования : UTC 2018-07-06 06:09:11
Дата пометки : UTC 2018-07-06 06:09:11

Общее
Полное имя : D:\mech.2.2015.HDTVRip.720p\mech.2.17.seria.2015.HDTVRip.720p.mp4
Формат : MPEG-4
Профиль формата : Base Media / Version 2
Идентификатор кодека : mp42 (isom/mp42)
Размер файла : 458 Мбайт
Продолжительность : 44 м. 58 с.
Режим общего битрейта : Переменный
Общий поток : 1422 Кбит/сек
Дата кодирования : UTC 2018-07-06 06:16:15
Дата пометки : UTC 2018-07-06 06:16:15
gsst : 0
gstd : 2698808

Видео
Идентификатор : 1
Формат : AVC
Формат/Информация : Advanced Video Codec
Профиль формата : [email protected]
Настройки формата : CABAC / 3 Ref Frames
Параметр CABAC формата : Да
Параметр RefFrames формата : 3 кадра
Идентификатор кодека : avc1
Идентификатор кодека/Информация : Advanced Video Coding
Продолжительность : 44 м. 58 с.
Битрейт : 1293 Кбит/сек
Ширина : 1280 пикселей
Высота : 720 пикселей
Соотношение сторон : 16:9
Режим частоты кадров : Постоянный
Частота кадров : 25,000 кадров/сек
Цветовое пространство : YUV
Субдискретизация насыщенности : 4:2:0
Битовая глубина : 8 бит
Тип развёртки : Прогрессивная
Бит/(Пиксели*Кадры) : 0.056
Размер потока : 416 Мбайт (91%)
Заголовок : ISO Media file produced by Google Inc. Created on: 07/05/2018.
Дата кодирования : UTC 2018-07-06 06:16:15
Дата пометки : UTC 2018-07-06 06:16:15
Цветовой диапазон : Limited
Основные цвета : BT.709
Характеристики трансфера : BT.709
Коэффициенты матрицы : BT.709

Аудио
Идентификатор : 2
Формат : AAC
Формат/Информация : Advanced Audio Codec
Профиль формата : LC
Идентификатор кодека : mp4a-40-2
Продолжительность : 44 м. 58 с.
Вид битрейта : Переменный
Битрейт : 126 Кбит/сек
Каналы : 2 канала
Расположение каналов : Front: L R
Частота : 44,1 КГц
Частота кадров : 43,066 кадра/сек (1024 SPF)
Метод сжатия : С потерями
Размер потока : 40,4 Мбайт (9%)
Заголовок : ISO Media file produced by Google Inc. Created on: 07/05/2018.
Дата кодирования : UTC 2018-07-06 06:16:15
Дата пометки : UTC 2018-07-06 06:16:15

Общее
Полное имя : D:\mech.2.2015.HDTVRip.720p\mech.2.18.seria.2015.HDTVRip.720p.mp4
Формат : MPEG-4
Профиль формата : Base Media / Version 2
Идентификатор кодека : mp42 (isom/mp42)
Размер файла : 398 Мбайт
Продолжительность : 44 м. 1 с.
Режим общего битрейта : Переменный
Общий поток : 1263 Кбит/сек
Дата кодирования : UTC 2018-07-06 06:34:14
Дата пометки : UTC 2018-07-06 06:34:14
gsst : 0
gstd : 2641060

Видео
Идентификатор : 1
Формат : AVC
Формат/Информация : Advanced Video Codec
Профиль формата : [email protected]
Настройки формата : CABAC / 3 Ref Frames
Параметр CABAC формата : Да
Параметр RefFrames формата : 3 кадра
Идентификатор кодека : avc1
Идентификатор кодека/Информация : Advanced Video Coding
Продолжительность : 44 м. 1 с.
Битрейт : 1134 Кбит/сек
Ширина : 1280 пикселей
Высота : 720 пикселей
Соотношение сторон : 16:9
Режим частоты кадров : Постоянный
Частота кадров : 25,000 кадров/сек
Цветовое пространство : YUV
Субдискретизация насыщенности : 4:2:0
Битовая глубина : 8 бит
Тип развёртки : Прогрессивная
Бит/(Пиксели*Кадры) : 0.049
Размер потока : 357 Мбайт (90%)
Заголовок : ISO Media file produced by Google Inc. Created on: 07/05/2018.
Дата кодирования : UTC 2018-07-06 06:34:14
Дата пометки : UTC 2018-07-06 06:34:14
Цветовой диапазон : Limited
Основные цвета : BT.709
Характеристики трансфера : BT.709
Коэффициенты матрицы : BT.709

Аудио
Идентификатор : 2
Формат : AAC
Формат/Информация : Advanced Audio Codec
Профиль формата : LC
Идентификатор кодека : mp4a-40-2
Продолжительность : 44 м. 1 с.
Вид битрейта : Переменный
Битрейт : 126 Кбит/сек
Каналы : 2 канала
Расположение каналов : Front: L R
Частота : 44,1 КГц
Частота кадров : 43,066 кадра/сек (1024 SPF)
Метод сжатия : С потерями
Размер потока : 39,5 Мбайт (10%)
Заголовок : ISO Media file produced by Google Inc. Created on: 07/05/2018.
Дата кодирования : UTC 2018-07-06 06:34:14
Дата пометки : UTC 2018-07-06 06:34:14

Общее
Полное имя : D:\mech.2.2015.HDTVRip.720p\mech.2.19.seria.2015.HDTVRip.720p.mp4
Формат : MPEG-4
Профиль формата : Base Media / Version 2
Идентификатор кодека : mp42 (isom/mp42)
Размер файла : 433 Мбайт
Продолжительность : 45 м. 18 с.
Режим общего битрейта : Переменный
Общий поток : 1336 Кбит/сек
Дата кодирования : UTC 2018-07-06 06:24:55
Дата пометки : UTC 2018-07-06 06:24:55
gsst : 0
gstd : 2718243

Видео
Идентификатор : 1
Формат : AVC
Формат/Информация : Advanced Video Codec
Профиль формата : [email protected]
Настройки формата : CABAC / 3 Ref Frames
Параметр CABAC формата : Да
Параметр RefFrames формата : 3 кадра
Идентификатор кодека : avc1
Идентификатор кодека/Информация : Advanced Video Coding
Продолжительность : 45 м. 18 с.
Битрейт : 1207 Кбит/сек
Ширина : 1280 пикселей
Высота : 720 пикселей
Соотношение сторон : 16:9
Режим частоты кадров : Постоянный
Частота кадров : 25,000 кадров/сек
Цветовое пространство : YUV
Субдискретизация насыщенности : 4:2:0
Битовая глубина : 8 бит
Тип развёртки : Прогрессивная
Бит/(Пиксели*Кадры) : 0.052
Размер потока : 391 Мбайт (90%)
Заголовок : ISO Media file produced by Google Inc. Created on: 07/05/2018.
Дата кодирования : UTC 2018-07-06 06:24:55
Дата пометки : UTC 2018-07-06 06:24:55
Цветовой диапазон : Limited
Основные цвета : BT.709
Характеристики трансфера : BT.709
Коэффициенты матрицы : BT.709

Аудио
Идентификатор : 2
Формат : AAC
Формат/Информация : Advanced Audio Codec
Профиль формата : LC
Идентификатор кодека : mp4a-40-2
Продолжительность : 45 м. 18 с.
Вид битрейта : Переменный
Битрейт : 126 Кбит/сек
Каналы : 2 канала
Расположение каналов : Front: L R
Частота : 44,1 КГц
Частота кадров : 43,066 кадра/сек (1024 SPF)
Метод сжатия : С потерями
Размер потока : 40,7 Мбайт (9%)
Заголовок : ISO Media file produced by Google Inc. Created on: 07/05/2018.
Дата кодирования : UTC 2018-07-06 06:24:55
Дата пометки : UTC 2018-07-06 06:24:55

Общее
Полное имя : D:\mech.2.2015.HDTVRip.720p\mech.2.20.seria.2015.HDTVRip.720p.mp4
Формат : MPEG-4
Профиль формата : Base Media / Version 2
Идентификатор кодека : mp42 (isom/mp42)
Размер файла : 469 Мбайт
Продолжительность : 44 м. 57 с.
Режим общего битрейта : Переменный
Общий поток : 1458 Кбит/сек
Дата кодирования : UTC 2018-07-06 06:28:00
Дата пометки : UTC 2018-07-06 06:28:00
gsst : 0
gstd : 2697996

Видео
Идентификатор : 1
Формат : AVC
Формат/Информация : Advanced Video Codec
Профиль формата : [email protected]
Настройки формата : CABAC / 3 Ref Frames
Параметр CABAC формата : Да
Параметр RefFrames формата : 3 кадра
Идентификатор кодека : avc1
Идентификатор кодека/Информация : Advanced Video Coding
Продолжительность : 44 м. 57 с.
Битрейт : 1329 Кбит/сек
Ширина : 1280 пикселей
Высота : 720 пикселей
Соотношение сторон : 16:9
Режим частоты кадров : Постоянный
Частота кадров : 25,000 кадров/сек
Цветовое пространство : YUV
Субдискретизация насыщенности : 4:2:0
Битовая глубина : 8 бит
Тип развёртки : Прогрессивная
Бит/(Пиксели*Кадры) : 0.058
Размер потока : 428 Мбайт (91%)
Заголовок : ISO Media file produced by Google Inc. Created on: 07/05/2018.
Дата кодирования : UTC 2018-07-06 06:28:00
Дата пометки : UTC 2018-07-06 06:28:00
Цветовой диапазон : Limited
Основные цвета : BT.709
Характеристики трансфера : BT.709
Коэффициенты матрицы : BT.709

Аудио
Идентификатор : 2
Формат : AAC
Формат/Информация : Advanced Audio Codec
Профиль формата : LC
Идентификатор кодека : mp4a-40-2
Продолжительность : 44 м. 57 с.
Вид битрейта : Переменный
Битрейт : 126 Кбит/сек
Каналы : 2 канала
Расположение каналов : Front: L R
Частота : 44,1 КГц
Частота кадров : 43,066 кадра/сек (1024 SPF)
Метод сжатия : С потерями
Размер потока : 40,4 Мбайт (9%)
Заголовок : ISO Media file produced by Google Inc. Created on: 07/05/2018.
Дата кодирования : UTC 2018-07-06 06:28:00
Дата пометки : UTC 2018-07-06 06:28:00
Предыдущие и альтернативные раздачи

Трекер:  [ 07-Июл-2018 11:42 ]

  

Скачать .torrent

Размер .torrent файла 46 KB


Размер: 8.87 GB
Хэш (hash) релиза: 8efffa95f9e9138ff4588d2eb30fce1db3e1999f
Подписка на обновления:

Еще никто не оставлял запись к записи скачать торрент Меч-2 Сезон: 2 . Будь первым!

!Обратная связь