Go Mad and Mark (2017) | Карточные | Junjou Romantica

Скачать через торрент Павел, апостол Христа Paul, Apostle of Christ бесплатно русская версия torrent активатор

Статистика раздачи
Размер:  3.84 GB   |    Зарегистрирован:  9 дней   |    .torrent скачан:  41 раз   |   
Раздают:  1  
   
загрузка...
 
Автор Сообщение

Galfimbul

avatar Galfimbul


Павел, апостол Христа / Paul, Apostle of Christ
«Their Faith Challenged an Empire»

6.320 / 10 6.70 / 10
Год выпуска: 2018
Страна: США
Жанр: Драма, история
Продолжительность: 01:47:46

Перевод: Многоголосый закадровый (Blu-ray EUR)
Оригинальная аудиодорожка: Есть
Cубтитры: Русские, Английские
Режиссёр: Эндрю Хайатт
Сценарий: Terence Berden, Эндрю Хайатт
Продюсер: Дэвид Зелон, Terence Berden, Джеймс Кэвизел
Оператор: Жерардо Матео Мадрасо
Композитор: Ян А.П. Качмарек
Художник: Дэйв Эрроусмит, Ино Бонелло, Лучиано Капоцци
Монтаж: Скотт Рихтер
В ролях: Джеймс Кэвизел, Джеймс Фолкнер, Оливье Мартинес, Джоэнн Уэлли, Джон Линч, Гиоргос Карамихос, Антония Кэмпбелл-Хьюджес, Алессандро Спердути, Александра Вино, Мануэль Коши

Бюджет: $5 000 000
Сборы в США: $17 560 475
Сборы в мире: + $4 965 193 = $22 525 668

Мировая премьера: 23 марта 2018

Цифровой релиз: 9 июля 2018, «Sony Pictures Home Entertainment»

Описание: История жизни и смерти апостола Павла, который прошёл путь от беспощадного гонителя христиан до одного из основателей христианской церкви. Его последнее миссионерское путешествие заканчивается в тюрьме, куда он был заточён по приказу римского императора Нерона. Пока плененный Павел ждёт казни и размышляет о своей посмертной участи, его последователь Лука пишет новое Евангелие.
Качество исходника: Blu-Ray (BlueBird)
Качество: BDRip
Тип: HD (720p)
Контейнер: M4V
Видео: H.264, 1280x544, 2.35:1, 3 500 Kbps, 23.976 (23976/1000) fps

Аудио 1: Русский/Многоголосый закадровый (Blu-ray EUR), AAC / 2.0 / 160 Kbps / 48.0 KHz
Аудио 2: Английский/Оригинальная дорожка , AAC / 2.0 / 160 Kbps / 48.0 KHz
Аудио 3: Русский/Многоголосый закадровый (Blu-ray EUR), AC-3 / 5.1 / 640 Kbps / 48.0 KHz
Аудио 4: Английский/Оригинальная дорожка , AC-3 / 5.1 / 640 Kbps / 48.0 KHz

Субтитры 1: Русские полные
Субтитры 2: Английские полные
Sort Name: Paul, Apostle of Christ
XID: Apple:vendor_id:2018-1070216
contentID: 1358794478
Copyright: © 2018 Affirm Films
Screenwriters: Terence Berden, Эндрю Хайатт
Producers: Дэвид Зелон, Terence Berden, Джеймс Кэвизел
Director: Эндрю Хайатт
Cast: Джеймс Кэвизел, Джеймс Фолкнер, Оливье Мартинес, Джоэнн Уэлли, Джон Линч, Гиоргос Карамихос, Антония Кэмпбелл-Хьюджес, Алессандро Спердути, Александра Вино, Мануэль Коши
Studio: Affirm Films
Rating Annotation: Rated PG-13 for some violent content and disturbing images.
Rating: 4
Long Description: История жизни и смерти апостола Павла, который прошёл путь от беспощадного гонителя христиан до одного из основателей христианской церкви. Его последнее миссионерское путешествие заканчивается в тюрьме, куда он был заточён по приказу римского императора Нерона. Пока плененный Павел ждёт казни и размышляет о своей посмертной участи, его последователь Лука пишет новое Евангелие.
Description: История жизни и смерти апостола Павла, который прошёл путь от беспощадного гонителя христиан до одного из основателей христианской церкви. Его последнее миссионерское путешествие заканчивается в тюрьме, куда он был заточён по приказу римского императора Нерона. Пока плененный Павел ждёт казни и размышляет о своей посмертной участи, его последователь Лука пишет новое Евангелие.
Release Date: 2018-03-23T08:00:00Z
Genre: Drama
Artist: Andrew Hyatt
Name: Paul, Apostle of Christ
General
Complete name : /Users/imac/HandBrake/Paul, Apostle of Christ (720p HD).m4v
Format : MPEG-4
Codec ID : M4V
File size : 3.84 GiB
Duration : 1h 47mn
Overall bit rate mode : Variable
Overall bit rate : 5 097 Kbps
Movie name : Paul, Apostle of Christ
Performer : Andrew Hyatt
Director : Эндрю Хайатт
Actor : Джеймс Кэвизел / Джеймс Фолкнер / Оливье Мартинес / Джоэнн Уэлли / Джон Линч / Гиоргос Карамихос / Антония Кэмпбелл-Хьюджес / Алессандро Спердути / Александра Вино / Мануэль Коши
Screenplay by : Terence Berden / Эндрю Хайатт
Producer : Дэвид Зелон / Terence Berden / Джеймс Кэвизел
Production studio : Affirm Films
Genre : Drama
ContentType : Short Film
Description : История жизни и смерти апостола Павла, который прошёл путь от беспощадного гонителя христиан до одного из основателей христианской церкви. Его последнее миссионерское путешествие заканчивается в тюрьме, куда он был заточён по приказу римского императора Нерона. Пока плененный Павел ждёт казни и размышляет о своей посмертной участи, его последователь Лука пишет новое Евангелие.
Recorded date : UTC 2018-03-23 08:00:00
Encoded date : UTC 2018-07-06 21:56:09
Tagged date : UTC 2018-07-06 21:57:55
Copyright : © 2018 Affirm Films
Cover : Yes
Rating : None
Title/Sort : Paul, Apostle of Christ
LongDescription : История жизни и смерти апостола Павла, который прошёл путь от беспощадного гонителя христиан до одного из основателей христианской церкви. Его последнее миссионерское путешествие заканчивается в тюрьме, куда он был заточён по приказу римского императора Нерона. Пока плененный Павел ждёт казни и размышляет о своей посмертной участи, его последователь Лука пишет новое Евангелие.
HDVideo : Yes
AppleStoreCatalogID : 1358794478
Vendor : Apple:vendor_id:2018-1070216
ContentRating : mpaa|PG-13|300|Rated PG-13 for some violent content and disturbing images.

Video #1
ID : 1
Format : AVC
Format/Info : Advanced Video Codec
Format profile : [email protected]
Format settings, CABAC : No
Format settings, ReFrames : 3 frames
Codec ID : avc1
Codec ID/Info : Advanced Video Coding
Duration : 1h 47mn
Source duration : 1h 47mn
Bit rate : 3 500 Kbps
Width : 1 280 pixels
Height : 544 pixels
Display aspect ratio : 2.35:1
Frame rate mode : Variable
Frame rate : 23.976 fps
Minimum frame rate : 23.974 fps
Maximum frame rate : 23.981 fps
Color space : YUV
Chroma subsampling : 4:2:0
Bit depth : 8 bits
Scan type : Progressive
Bits/(Pixel*Frame) : 0.210
Stream size : 2.63 GiB (69%)
Source stream size : 2.63 GiB (69%)
Title : Main Program
Writing library : x264 core 155 r2901 7d0ff22
Encoding settings : cabac=0 / ref=3 / deblock=1:-3:-3 / analyse=0x3:0x113 / me=umh / subme=9 / psy=1 / psy_rd=1.00:0.15 / mixed_ref=1 / me_range=32 / chroma_me=1 / trellis=0 / 8x8dct=1 / cqm=0 / deadzone=21,11 / fast_pskip=0 / chroma_qp_offset=-2 / threads=17 / lookahead_threads=1 / sliced_threads=0 / nr=0 / decimate=0 / interlaced=0 / bluray_compat=0 / constrained_intra=0 / bframes=3 / b_pyramid=0 / b_adapt=2 / b_bias=0 / direct=1 / weightb=0 / open_gop=0 / weightp=0 / keyint=240 / keyint_min=24 / scenecut=40 / intra_refresh=0 / rc_lookahead=40 / rc=2pass / mbtree=1 / bitrate=3500 / ratetol=1.0 / qcomp=0.65 / qpmin=0 / qpmax=69 / qpstep=4 / cplxblur=20.0 / qblur=0.5 / vbv_maxrate=9500 / vbv_bufsize=9500 / nal_hrd=none / filler=0 / ip_ratio=1.40 / aq=1:1.10
Language : English
Encoded date : UTC 2018-07-06 21:56:09
Tagged date : UTC 2018-07-06 21:56:16
Color range : Limited
Color primaries : BT.709
Transfer characteristics : BT.709
Matrix coefficients : BT.709

Video #2
ID : 9
Format : JPEG
Codec ID : jpeg
Duration : 1h 47mn
Bit rate mode : Variable
Bit rate : 461 bps
Width : 640 pixels
Height : 272 pixels
Display aspect ratio : 2.35:1
Frame rate mode : Variable
Frame rate : 0.002 fps
Minimum frame rate : 0.001 fps
Maximum frame rate : 0.004 fps
Color space : YUV
Chroma subsampling : 4:2:0
Bit depth : 8 bits
Compression mode : Lossy
Bits/(Pixel*Frame) : 1.324
Stream size : 450 KiB (0%)
Title : Chapter Images
Language : English
Encoded date : UTC 2018-07-06 21:56:27
Tagged date : UTC 2018-07-06 21:56:27

Audio #1
ID : 2
Format : AAC
Format/Info : Advanced Audio Codec
Format profile : LC
Codec ID : 40
Duration : 1h 47mn
Source duration : 1h 47mn
Bit rate mode : Variable
Bit rate : 154 Kbps
Maximum bit rate : 234 Kbps
Channel(s) : 2 channels
Channel positions : Front: L R
Sampling rate : 48.0 KHz
Compression mode : Lossy
Stream size : 119 MiB (3%)
Source stream size : 119 MiB (3%)
Title : Russian Stereo
Language : Russian
Encoded date : UTC 2018-07-06 21:56:09
Tagged date : UTC 2018-07-06 21:56:23

Audio #2
ID : 3
Format : AAC
Format/Info : Advanced Audio Codec
Format profile : LC
Codec ID : 40
Duration : 1h 47mn
Source duration : 1h 47mn
Bit rate mode : Variable
Bit rate : 158 Kbps
Maximum bit rate : 228 Kbps
Channel(s) : 2 channels
Channel positions : Front: L R
Sampling rate : 48.0 KHz
Compression mode : Lossy
Stream size : 122 MiB (3%)
Source stream size : 122 MiB (3%)
Title : English Stereo
Language : English
Encoded date : UTC 2018-07-06 21:56:09
Tagged date : UTC 2018-07-06 21:56:23

Audio #3
ID : 4
Format : AC-3
Format/Info : Audio Coding 3
Mode extension : CM (complete main)
Format settings, Endianness : Big
Codec ID : ac-3
Duration : 1h 47mn
Bit rate mode : Constant
Bit rate : 640 Kbps
Channel(s) : 6 channels
Channel positions : Front: L C R, Side: L R, LFE
Sampling rate : 48.0 KHz
Bit depth : 16 bits
Compression mode : Lossy
Stream size : 493 MiB (13%)
Title : Russian DD 5.1
Language : Russian
Encoded date : UTC 2018-07-06 21:56:09
Tagged date : UTC 2018-07-06 21:56:23

Audio #4
ID : 5
Format : AC-3
Format/Info : Audio Coding 3
Mode extension : CM (complete main)
Format settings, Endianness : Big
Codec ID : ac-3
Duration : 1h 47mn
Bit rate mode : Constant
Bit rate : 640 Kbps
Channel(s) : 6 channels
Channel positions : Front: L C R, Side: L R, LFE
Sampling rate : 48.0 KHz
Bit depth : 16 bits
Compression mode : Lossy
Stream size : 493 MiB (13%)
Title : English DD 5.1
Language : English
Encoded date : UTC 2018-07-06 21:56:09
Tagged date : UTC 2018-07-06 21:56:23

Text #1
ID : 6
Format : Timed Text
Muxing mode : sbtl
Codec ID : tx3g
Duration : 1h 47mn
Bit rate mode : Variable
Bit rate : 92 bps
Stream size : 72.3 KiB (0%)
Title : Russian full
Language : Russian
Encoded date : UTC 2018-07-06 21:56:09
Tagged date : UTC 2018-07-06 21:56:22

Text #2
ID : 7
Format : Timed Text
Muxing mode : sbtl
Codec ID : tx3g
Duration : 1h 38mn
Bit rate mode : Variable
Bit rate : 64 bps
Stream size : 46.5 KiB (0%)
Title : English full
Language : English
Encoded date : UTC 2018-07-06 21:56:09
Tagged date : UTC 2018-07-06 21:56:22

Menu #1
00:00:00.000 : Chapter 1
00:07:58.436 : Chapter 2
00:14:52.100 : Chapter 3
00:22:26.136 : Chapter 4
00:29:26.181 : Chapter 5
00:36:19.302 : Chapter 6
00:40:36.184 : Chapter 7
00:46:59.525 : Chapter 8
00:52:04.455 : Chapter 9
00:55:47.636 : Chapter 10
01:00:38.176 : Chapter 11
01:08:15.592 : Chapter 12
01:19:16.001 : Chapter 13
01:24:19.429 : Chapter 14
01:28:38.647 : Chapter 15
01:34:40.091 : Chapter 16

Menu #2
ID : 8
Codec ID : text
Duration : 1h 47mn
Language : English
Encoded date : UTC 2018-07-06 21:56:23
Tagged date : UTC 2018-07-06 21:56:23
00:00:00.000 : Chapter 1
00:07:58.436 : Chapter 2
00:14:52.100 : Chapter 3
00:22:26.136 : Chapter 4
00:29:26.181 : Chapter 5
00:36:19.302 : Chapter 6
00:40:36.184 : Chapter 7
00:46:59.525 : Chapter 8
00:52:04.455 : Chapter 9
00:55:47.636 : Chapter 10
01:00:38.176 : Chapter 11
01:08:15.592 : Chapter 12
01:19:16.001 : Chapter 13
01:24:19.429 : Chapter 14
01:28:38.647 : Chapter 15
01:34:40.091 : Chapter 16
Bit rate mode : VBR
x264 [info]: frame I:1160  Avg QP:13.96  size: 93575
x264 [info]: frame P:52616 Avg QP:16.27  size: 32317
x264 [info]: frame B:101264 Avg QP:17.61  size: 10035
x264 [info]: consecutive B-frames:  2.3% 23.0% 26.1% 48.5%
x264 [info]: mb I  I16..4:  6.8% 67.7% 25.6%
x264 [info]: mb P  I16..4:  1.2%  3.9%  1.3%  P16..4: 48.0% 29.9% 13.3%  0.0%  0.0%    skip: 2.4%
x264 [info]: mb B  I16..4:  0.1%  0.3%  0.1%  B16..8: 50.3% 12.9%  2.0%  direct: 4.1%  skip:30.3%  L0:42.4% L1:51.7% BI: 5.9%
x264 [info]: 8x8 transform intra:63.5% inter:45.3%
x264 [info]: coded y,uvDC,uvAC intra: 83.9% 84.8% 68.8% inter: 28.1% 26.1% 15.2%
x264 [info]: i16 v,h,dc,p: 40% 18%  8% 33%
x264 [info]: i8 v,h,dc,ddl,ddr,vr,hd,vl,hu:  9%  5%  8% 12% 15% 16% 13% 13%  9%
x264 [info]: i4 v,h,dc,ddl,ddr,vr,hd,vl,hu:  9%  8%  3% 13% 17% 17% 13% 12%  8%
x264 [info]: i8c dc,h,v,p: 57% 13% 18% 12%
x264 [info]: ref P L0: 68.9% 17.9% 13.1%
x264 [info]: ref B L0: 78.3% 21.7%
x264 [info]: kb/s:3495.06

Релиз подготовлен для просмотра на Apple TV, iPad, iPhone, iPod Touch.
Для просмотра данного релиза на компьютере с ОС Windows рекомендуется использовать VLC media player

Трекер:  [ 07-Июл-2018 01:36 ]

  

Скачать .torrent

Размер .torrent файла 39 KB


Размер: 3.84 GB
Хэш (hash) релиза: 6cf2605e7c3339e749f84dc1f623a9232c988ad8

Торренты, похожие на Павел, апостол Христа Paul, Apostle of Christ скачать торрент

Форум Название Автор Размер S L Добавлен
Видео (iPhone/iPod Touch/iPad) ·%· [ATV3] Павел, апостол Христа / Paul, Apostle of Christ (Эндрю Хайатт / Andrew Hyatt ) [2018, США, Драма, история, BDRip, HD (1080p)] MVO + DUB + Original + sub (rus, eng) Galfimbul 77614406527.23 GB 0 0 1530911174

00:06

7-Июл-18

Еще никто не оставлял запись к записи скачать торрент Павел, апостол Христа Paul, Apostle of Christ . Будь первым!

!Обратная связь