Another Time | I Tried To Re-create This Flaming Hot Cheeto Burrito | Mastering Web Application Development with AngularJS

Скачать через торрент Вся правда о тренировках The Truth About Exercise Фильм бесплатно в хорошем качестве torrent

Скачивайте на UnionPeer.org фильмы через торрент без регистрации. Новинки кино в хорошем качестве через торрент. На UnionPeer.org можно скачать через торрент фильмы 2014 и 2015 годов. Самые новые фильмы.

Скачать торрент Вся правда о тренировках The Truth About Exercise бесплатно через .torrent фильм мультфильм сериал

Статистика раздачи
Размер:  2.45 GB   |    Зарегистрирован:  9 дней   |    .torrent скачан:  65 раз   |   
Раздают:  1  
   
загрузка...
 
Автор Сообщение

Galfimbul

avatar Galfimbul


Вся правда о тренировках / The Truth About Exercise

Год выпуска: 2012
Страна: Великобритания
Студия: BBC Production
Жанр: Документальный
Продолжительность: 00:48:09
Перевод: Профессиональный (двухголосый закадровый)
Доп. инфо о переводе: Видеофильм ТВ
Русские субтитры: нет

Режиссер: Тоби Макдональд / Toby MacDonald

Описание: Физкультура... Все знают, что ею надо заниматься, но не очень-то и хочется. Жалко времени, да и пользы особо не видно. А почему все-таки стоит заниматься и, главное, сколько заниматься? Если считать, что тренировка - это бег трусцой по улице или многочасовое занятие в спортзале, то увы, вас ждет сюрприз... Ученые открыли, что мы все по-разному реагируем на упражнения. Да и сами упражнения весьма разнообразны. Например, существует методика, согласно которой можно извлечь массу пользы от физической нагрузки всего за... 3 минуты в неделю! Итак, как же можно прожить долгую и здоровую жизнь, не гоняя себя до восьмого пота?

Доп. информация: Релиз:
и

Сэмпл: http://multi-up.com/1203172

Тип релиза: HDTV 1080i
Контейнер: TS

Видео: 1920x1080 at 25.000 fps, MPEG-4 AVC, ~6525 kbps avg
Аудио: Русский: 48 kHz, AC3, 2/0 (L,R) ch, ~192.00 kbps avg | Видеофильм-ТВ |
Аудио 2: English: 48 kHz, AC3, 2/0 (L,R) ch, ~192.00 kbps avg
ОбщееИдентификатор : 1 (0x1)Полное имя : The.Truth.About.Exercise.(2012).1080i.HDTV.Rus.Eng-BLUEBIRD.tsФормат : MPEG-TSРазмер файла : 2,45 ГбайтПродолжительность : 48 м. 8 с.Режим общего битрейта : ПеременныйОбщий поток : 7272 Кбит/секМаксимальный общий битрейт : 35,5 Мбит/сек

ВидеоИдентификатор : 4113 (0x1011)Идентификатор меню : 1 (0x1)Формат : AVCФормат/Информация : Advanced Video CodecПрофиль формата : [email protected]Настройки формата : CABAC / 4 Ref FramesПараметр CABAC формата : ДаПараметр RefFrames формата : 4 кадраИдентификатор кодека : 27Продолжительность : 48 м. 8 с.Вид битрейта : ПеременныйБитрейт : 6525 Кбит/секМаксимальный битрейт : 40,0 Мбит/секШирина : 1920 пикселейВысота : 1080 пикселейСоотношение сторон : 16:9Частота кадров : 25,000 кадров/секЦветовое пространство : YUVСубдискретизация насыщенности : 4:2:0Битовая глубина : 8 битТип развёртки : ЧересстрочнаяМетод сохранения типа развёртки : Раздельные поляПорядок развёртки : Верхнее поле первоеБит/(Пиксели*Кадры) : 0.126Размер потока : 2,19 Гбайт (90%)Цветовой диапазон : LimitedОсновные цвета : BT.709Характеристики трансфера : BT.709Коэффициенты матрицы : BT.709

Аудио #1Идентификатор : 4352 (0x1100)Идентификатор меню : 1 (0x1)Формат : AC-3Формат/Информация : Audio Coding 3Идентификатор кодека : 129Продолжительность : 48 м. 8 с.Вид битрейта : ПостоянныйБитрейт : 192 Кбит/секКаналы : 2 каналаРасположение каналов : Front: L RЧастота : 48,0 КГцЧастота кадров : 31,250 кадров/сек (1536 SPF)Битовая глубина : 16 битМетод сжатия : С потерямиРазмер потока : 66,1 Мбайт (3%)Язык : RussianServiceKind/String : Complete Main

Аудио #2Идентификатор : 4353 (0x1101)Идентификатор меню : 1 (0x1)Формат : AC-3Формат/Информация : Audio Coding 3Идентификатор кодека : 129Продолжительность : 48 м. 8 с.Вид битрейта : ПостоянныйБитрейт : 192 Кбит/секКаналы : 2 каналаРасположение каналов : Front: L RЧастота : 48,0 КГцЧастота кадров : 31,250 кадров/сек (1536 SPF)Битовая глубина : 16 битМетод сжатия : С потерямиРазмер потока : 66,1 Мбайт (3%)Язык : EnglishServiceKind/String : Complete Main


Трекер:  [ 06-Июл-2018 23:06 ]

  

Скачать .torrent

Размер .torrent файла 12 KB


Размер: 2.45 GB
Хэш (hash) релиза: 1cbc060251cbba2a717b9b3c3afe1f5dedf60a5c
Подписка на обновления:

Еще никто не оставлял запись к записи скачать торрент Вся правда о тренировках The Truth About Exercise . Будь первым!

!Обратная связь