Yeni Sekmede Aç | Strike (2017) | Step Brother

Скачать через торрент Озеро героев Фильм бесплатно в хорошем качестве torrent

Скачивайте на UnionPeer.org фильмы через торрент без регистрации. Новинки кино в хорошем качестве через торрент. На UnionPeer.org можно скачать через торрент фильмы 2014 и 2015 годов. Самые новые фильмы.

Скачать торрент Озеро героев бесплатно через .torrent фильм мультфильм сериал

Статистика раздачи
Размер:  1.09 GB   |    Зарегистрирован:  11 дней   |    .torrent скачан:  57 раз   |   
Раздают:  2  
   
загрузка...
 
Автор Сообщение

Galfimbul

avatar Galfimbul


Озеро героев

Жанр: комедия, приключения
Год выпуска: 2017
Продолжительность: 01:10:52

Режиссёр: Анна Протоковило

В ролях: Любава Яровая, Александр Чусовитин, Никита Бурячек, Олег Майборода, Нелли Гатина, Никита Краснояров, Дмитрий Востриков, Николай Кулебякин, Вадим Карионов, Олег Тупица
Описание: Члены молодежной организации «Экологи Сибири» узнают, что на озере Байкал, в заповедном месте планируется строительство крупного отеля. Лидер экологов Егор призывает любой ценой помешать этим планам и встать на защиту природы. Ребята едут на Байкал и разбивают палаточный лагерь прямо на месте строительства. Начинается противостояние юных экологов и строительной корпорации, обе стороны настроены решительно. Ситуация накаляется еще более, когда выясняется, что подруга Егора — дочь директора строительной корпорации. Строителям нужно начинать работы, и они решаются на крайние меры…

Кинопоиск
Sample

Качество видео: WEB-DLRip
Формат видео: AVI

Видео: 720x320 (2.25:1), 25 fps, XviD build 73 ~2000 kbps avg, 0.35 bit/pixel
Аудио: 48 kHz, AC3 Dolby Digital, 2/0 (L,R) ch, ~192 kbps
General
Complete name : D:\Озеро героев 2017 WEB-DLRip.avi
Format : AVI
Format/Info : Audio Video Interleave
File size : 1.09 GiB
Duration : 1 h 10 min
Overall bit rate : 2 203 kb/s
Writing application : VirtualDubMod 1.5.10.3 | www.virtualdub-fr.org || (build 2550/release)
Writing library : VirtualDubMod build 2550/release

Video
ID : 0
Format : MPEG-4 Visual
Format profile : Advanced [email protected]
Format settings : BVOP1
Format settings, BVOP : 1
Format settings, QPel : No
Format settings, GMC : No warppoints
Format settings, Matrix : Default (MPEG)
Codec ID : XVID
Codec ID/Hint : XviD
Duration : 1 h 10 min
Bit rate : 2 001 kb/s
Width : 720 pixels
Height : 320 pixels
Display aspect ratio : 2.25:1
Frame rate : 25.000 FPS
Color space : YUV
Chroma subsampling : 4:2:0
Bit depth : 8 bits
Scan type : Progressive
Compression mode : Lossy
Bits/(Pixel*Frame) : 0.347
Stream size : 1 014 MiB (91%)
Writing library : XviD 73

Audio
ID : 1
Format : AC-3
Format/Info : Audio Coding 3
Codec ID : 2000
Duration : 1 h 10 min
Bit rate mode : Constant
Bit rate : 192 kb/s
Channel(s) : 2 channels
Channel positions : Front: L R
Sampling rate : 48.0 kHz
Frame rate : 31.250 FPS (1536 SPF)
Bit depth : 16 bits
Compression mode : Lossy
Stream size : 97.3 MiB (9%)
Alignment : Split accross interleaves
Interleave, duration : 40 ms (1.00 video frame)
Interleave, preload duratio : 500 ms
Service kind : Complete Main


Трекер:  [ 06-Июл-2018 20:54 ]

  

Скачать .torrent

Размер .torrent файла 11 KB


Размер: 1.09 GB
Хэш (hash) релиза: 3c4ab80e3702c182c3de5e50a1acbf3c17cb417b
Подписка на обновления:

Торренты, похожие на Озеро героев скачать торрент

Форум Название Автор Размер S L Добавлен
Российские фильмы 2016-2018 (Новинки русского кино) ·%· Озеро героев (2017) WEB-DLRip от GeneralFilm Galfimbul 779589632743 MB 0 0 1530916892

01:41

7-Июл-18

Российские фильмы 2016-2018 (Новинки русского кино) ·%· Озеро героев (2017) WEB-DLRip от Files-x Galfimbul 956635136912 MB 2 0 1530912091

00:21

7-Июл-18

Еще никто не оставлял запись к записи скачать торрент Озеро героев . Будь первым!

!Обратная связь