Alien Covenant 2017 1080p HDRip x265 HETeam | Space Hulk Ascension Edition CODEX | Handbook on the Physics and Chemistry of Rare Earths Volume 11 Two-Hundred-Year Impact of Rare Earths on Science

Скачать через торрент Самый умный в мире небоскрёб Фильм бесплатно в хорошем качестве torrent

Скачивайте на UnionPeer.org фильмы через торрент без регистрации. Новинки кино в хорошем качестве через торрент. На UnionPeer.org можно скачать через торрент фильмы 2014 и 2015 годов. Самые новые фильмы.

Скачать торрент Самый умный в мире небоскрёб бесплатно через .torrent фильм мультфильм сериал

Статистика раздачи
Размер:  646 MB   |    Зарегистрирован:  12 дней   |    .torrent скачан:  55 раз   |   
Раздают:  1  
   
загрузка...
 
Автор Сообщение

Galfimbul

avatar Galfimbul


Самый умный в мире небоскрёб

Страна: Россия
Студия: ООО "РД Студия", Первый канал
Жанр: Документальный
Год выпуска: 2016
Продолжительность: 00:52:09
Режиссёр: Кристина Козлова
Ведущий: Валдис Пельш

Описание: Фильм посвящён комплексу зданий Московского государственного университета им. М.В. Ломоносова на Воробьёвых горах. МГУ – это настоящий город в городе, со своими улицами, историей и культурой. Жители этого города – преподаватели и студенты университета, его мэр – ректор. Ведущий отправится в путешествие по городу МГУ, и вместе с ним мы узнаем о современной жизни университета, его обычаях и традициях.

Доп. информация:
Автор релиза -

Сэмпл: http://yadi.sk/i/sbh0firF3YMvhS



Рекламы нет!

Качество видео: WEB-DLRip
Формат видео: AVI

Видео: XviD, 720x400 (16:9), 25.000 fps, 2106 kbps, 0.292 bit/pixel
Аудио: Русский AC3, 48000 Гц, 2ch, 192 kbps
ОбщееПолное имя : D:\Самый.умный.в.мире.небоскрёб.2016.WEBDLRip-ylnian.aviФормат : AVIФормат/Информация : Audio Video InterleaveРазмер файла : 646 МбайтПродолжительность : 39 м. 7 с.Общий поток : 2307 Кбит/секПрограмма кодирования : VirtualDubMod 1.5.10.3 | www.virtualdub-fr.org || (build 2550/release)Библиотека кодирования : VirtualDubMod build 2550/release

ВидеоИдентификатор : 0Формат : MPEG-4 VisualПрофиль формата : Advanced [email protected]Настройки формата : BVOP1Параметр BVOP формата : 1Параметр QPel формата : НетПараметр GMC формата : Без точки переходаПараметр матрицы формата : Default (MPEG)Идентификатор кодека : XVIDИдентификатор кодека/Подсказка : XviDПродолжительность : 39 м. 7 с.Битрейт : 2106 Кбит/секШирина : 720 пикселейВысота : 400 пикселейСоотношение сторон : 16:9Частота кадров : 25,000 кадров/секЦветовое пространство : YUVСубдискретизация насыщенности : 4:2:0Битовая глубина : 8 битТип развёртки : ПрогрессивнаяМетод сжатия : С потерямиБит/(Пиксели*Кадры) : 0.292Размер потока : 589 Мбайт (91%)Библиотека кодирования : XviD 67

АудиоИдентификатор : 1Формат : AC-3Формат/Информация : Audio Coding 3Идентификатор кодека : 2000Продолжительность : 39 м. 7 с.Вид битрейта : ПостоянныйБитрейт : 192 Кбит/секКаналы : 2 каналаРасположение каналов : Front: L RЧастота : 48,0 КГцЧастота кадров : 31,250 кадров/сек (1536 SPF)Битовая глубина : 16 битМетод сжатия : С потерямиРазмер потока : 53,7 Мбайт (8%)Выравнивание : Разделение по промежуткамПродолжительность промежутка : 40 мс. (1,00 видеокадр)Время предзагрузки промежутка : 500 мс.ServiceKind/String : Complete Main


Трекер:  [ 06-Июл-2018 01:42 ]

  

Скачать .torrent

Размер .torrent файла 13 KB


Размер: 646 MB
Хэш (hash) релиза: 65488564d46edcebcf0b1f59207d8271622a2121
Подписка на обновления:

Еще никто не оставлял запись к записи скачать торрент Самый умный в мире небоскрёб . Будь первым!

!Обратная связь