Westworld (2016) | Brooklyn ChaseKODIAK mp4 | Patients (2016)

Скачать через торрент Как убивали Павлика. История одного мифа Фильм бесплатно в хорошем качестве torrent

Скачивайте на UnionPeer.org фильмы через торрент без регистрации. Новинки кино в хорошем качестве через торрент. На UnionPeer.org можно скачать через торрент фильмы 2014 и 2015 годов. Самые новые фильмы.

Скачать торрент Как убивали Павлика. История одного мифа бесплатно через .torrent фильм мультфильм сериал

Статистика раздачи
Размер:  621 MB   |    Зарегистрирован:  12 дней   |    .torrent скачан:  47 раз   |   
Раздают:  1  
   
загрузка...
 
Автор Сообщение

Galfimbul

avatar Galfimbul


Как убивали Павлика. История одного мифа

Страна: Россия
Студия: Телеканал "Россия", ООО "Наш взгляд"
Жанр: Документальный, биография
Год выпуска: 2004
Продолжительность: 00:44:14
Режиссёр: Григорий Диккерт

Описание: Этот фильм посвящен жизни и трагической смерти пионера-героя Павлика Морозова, имя которого окутано огромным количеством легенд. При советской власти все знали, что Павлик предал своего отца-кулака и за это был убит родными дедом и бабкой. Во времена перестройки появилась другая версия - мальчика убили представители коммунистической власти для того, чтобы создать идеологический образ пионера-мученика, ради своих идей не пожалевшего родного отца. Что же произошло в далеком уральском селе Герасимовка на самом деле? Было ли двойное убийство, и какие обстоятельства его сопровождали? И главный вопрос: действительно ли Павлик Морозов был предателем? Авторы фильма восстанавливают подлинные события, происходившие много лет назад, при помощи материалов уголовного дела и показаний свидетелей. Зрители услышат рассказ о настоящих, а не выдуманных судьбах Павлика, его матери и братьев. Результаты этого расследования искренне поражают...

Доп. информация:
Автор релиза -

Сэмпл: http://yadi.sk/i/1cRJYU883YVBwW



Рекламы нет!

Качество видео: WEB-DLRip
Формат видео: AVI

Видео: XviD, 672x496 (4:3), 25.000 fps, 1760 kbps, 0.211 bit/pixel
Аудио: Русский AC3, 48000 Гц, 2ch, 192 kbps
ОбщееПолное имя : D:\Как.убивали.Павлика.История.одного.мифа.2004.WEBDLRip-ylnian.aviФормат : AVIФормат/Информация : Audio Video InterleaveРазмер файла : 621 МбайтПродолжительность : 44 м. 14 с.Общий поток : 1961 Кбит/секПрограмма кодирования : VirtualDubMod 1.5.10.3 | www.virtualdub-fr.org || (build 2550/release)Библиотека кодирования : VirtualDubMod build 2550/release

ВидеоИдентификатор : 0Формат : MPEG-4 VisualПрофиль формата : Advanced [email protected]Настройки формата : BVOP1Параметр BVOP формата : 1Параметр QPel формата : НетПараметр GMC формата : Без точки переходаПараметр матрицы формата : Default (MPEG)Идентификатор кодека : XVIDИдентификатор кодека/Подсказка : XviDПродолжительность : 44 м. 14 с.Битрейт : 1760 Кбит/секШирина : 672 пикселяВысота : 496 пикселейСоотношение сторон : 4:3Частота кадров : 25,000 кадров/секЦветовое пространство : YUVСубдискретизация насыщенности : 4:2:0Битовая глубина : 8 битТип развёртки : ПрогрессивнаяМетод сжатия : С потерямиБит/(Пиксели*Кадры) : 0.211Размер потока : 557 Мбайт (90%)Библиотека кодирования : XviD 67

АудиоИдентификатор : 1Формат : AC-3Формат/Информация : Audio Coding 3Идентификатор кодека : 2000Продолжительность : 44 м. 14 с.Вид битрейта : ПостоянныйБитрейт : 192 Кбит/секКаналы : 2 каналаРасположение каналов : Front: L RЧастота : 48,0 КГцЧастота кадров : 31,250 кадров/сек (1536 SPF)Битовая глубина : 16 битМетод сжатия : С потерямиРазмер потока : 60,8 Мбайт (10%)Выравнивание : Разделение по промежуткамПродолжительность промежутка : 40 мс. (1,00 видеокадр)Время предзагрузки промежутка : 500 мс.ServiceKind/String : Complete Main
Сравнение скриншотов с TVRip - http://screenshotcomparison.com/comparison/115865 - в моём релизе выше чёткость, полнее кадр


Трекер:  [ 06-Июл-2018 01:42 ]

  

Скачать .torrent

Размер .torrent файла 12 KB


Размер: 621 MB
Хэш (hash) релиза: fcf3082715392989e4174210f15c7df611b5e60f
Подписка на обновления:

Еще никто не оставлял запись к записи скачать торрент Как убивали Павлика. История одного мифа . Будь первым!

!Обратная связь