2x12 ¿Qué tiene de malo intentar ligar en una mazmorra? | 1129 The Pirates of Somalia (2017) | Running Man Episode 1

Скачать через торрент Готовим вместе Готуємо разом. Часть 2 Фильм бесплатно в хорошем качестве torrent

Скачивайте на UnionPeer.org фильмы через торрент без регистрации. Новинки кино в хорошем качестве через торрент. На UnionPeer.org можно скачать через торрент фильмы 2014 и 2015 годов. Самые новые фильмы.

Скачать торрент Готовим вместе Готуємо разом. Часть 2 бесплатно через .torrent фильм мультфильм сериал

Статистика раздачи
Размер:  609 MB   |    Зарегистрирован:  17 дней   |    .torrent скачан:  35 раз   |   
Раздают:  1  
   
загрузка...
 
Автор Сообщение

Galfimbul

avatar Galfimbul


Готовим вместе / Готуємо разом. Часть 2

Дата/Год выпуска: 2018
Страна: Украина
Жанр: кулинария
Продолжительность: 1x48 мин.
Перевод: Не требуется
Русские субтитры: нет

Оригинальная аудиодорожка: русский
Ведущие: Андрей Доманский и Андрей Дромов
Телеканал: IнтерОписание: Когда-то, в нашем детстве, не существовало ни кулинарных телепрограмм, ни интернета. Тогда на помощь хозяйкам приходили книги, газеты, журналы, календари... Наши мамы и бабушки вырезали из них рецепты и бережно вклеивали в тетради. Проект "Готовим вместе" - это "кулинарная книга", с помощью которой каждый может не только узнать новые рецепты и информацию о полезных свойствах продуктов, но и научиться готовить "в прямом эфире" вместе с нашим шеф-поваром и телеведущим. В результате, зрители и команда "Готовим вместе" пишут новую совместную кулинарную книгу о здоровой и полезной пище.

В проекте готовят блюда из доступных продуктов. Каждый выпуск программы раскрывает определенную тему, которая анонсируется заранее. В программе активно участвуют зрители. Они тоже готовят и выкладывают фотографии блюд на страницу "Готовим вместе" в Facebook и ВКонтакте - делятся советами и рецептами, участвуют в розыгрыше призов. И все это с юмором, ведь ведущие - одесситы: шоумен Андрей Доманский и один из лучших поваров Украины Андрей Дромов.
Сэмпл: http://www.sendspace.com/file/9q8ci7

качество: SATRip
формат: AVI
Видео: Xvid 720x400 (16:9) ~1536kbps 25fps
Аудио: MP3 192kbps 48kHz 2ch
<div class="sp-wrap">
<div class="sp-head folded">27. Блюда на гриле</div>
<div class="sp-body">Лето в самом разгаре, и усидеть в четырех стенах просто невозможно. Поэтому самое время для пикника на свежем воздухе. И хотя в переводе с французского "пикник" означает "поклевать, перехватить что-нибудь", в действительности это далеко от истины. Ведь как раз на природе аппетит только разыгрывается! Превращать скромный пикник в королевский пир в новом выпуске «Готовим вместе» возьмется шеф-повар Андрей Дромов. А от ведущего Андрея Доманского зрители узнают историю маринада, а также о лучшем соусе для стейков по версии аргентинцев и о том, как прогнать от стола нежелательных насекомых. Не пропустите! В меню этой программы: пряный салат из печеных овощей, куриные бедра-гриль в маринаде из меда, лайма, чили и кинзы, стейк из яблочка говядины с соусом "Чимичурри".
</div>
</div>
GeneralComplete name : F:\Мои раздачи\Телепрограммы\Готуємо разом (2018). Частина 2\27. Страви на грилі.aviFormat : AVIFormat/Info : Audio Video InterleaveFile size : 609 MiBDuration : 49 min 4 sOverall bit rate : 1 736 kb/s

VideoID : 0Format : MPEG-4 VisualFormat profile : Advanced [email protected] settings, BVOP : 2Format settings, QPel : NoFormat settings, GMC : No warppointsFormat settings, Matrix : Default (H.263)Codec ID : XVIDCodec ID/Hint : XviDDuration : 49 min 4 sBit rate : 1 534 kb/sWidth : 720 pixelsHeight : 400 pixelsDisplay aspect ratio : 16:9Frame rate : 25.000 FPSColor space : YUVChroma subsampling : 4:2:0Bit depth : 8 bitsScan type : ProgressiveCompression mode : LossyBits/(Pixel*Frame) : 0.213Stream size : 539 MiB (88%)Writing library : XviD 73

AudioID : 1Format : MPEG AudioFormat version : Version 1Format profile : Layer 3Mode : Joint stereoCodec ID : 55Codec ID/Hint : MP3Duration : 49 min 4 sBit rate mode : ConstantBit rate : 192 kb/sChannel(s) : 2 channelsSampling rate : 48.0 kHzCompression mode : LossyStream size : 67.4 MiB (11%)Alignment : Split accross interleavesInterleave, duration : 40 ms (1.00 video frame)Interleave, preload duratio : 500 ms


Трекер:  [ 06-Июл-2018 01:42 ]

  

Скачать .torrent

Размер .torrent файла 12 KB


Размер: 609 MB
Хэш (hash) релиза: b4bb6e46905f3647a096c2418530a3557b361b08
Подписка на обновления:

Еще никто не оставлял запись к записи скачать торрент Готовим вместе Готуємо разом. Часть 2 . Будь первым!

!Обратная связь