[FootsieBabes.com / 21Sextury.com] Charisma Capelli (Irresistable Charisma) [28.04.2012 г., Blonde, Natural Tits, Tatooed, Foot, Oral, Hardcore, Cumshot, 1080p] | Best Android Apps - July 2018! | God of Martial Arts: chapter 022.1 : Night Assassination (1)

Скачать через торрент От Помпеи до Исландии. Кто следующий? Фильм бесплатно в хорошем качестве torrent

Скачивайте на UnionPeer.org фильмы через торрент без регистрации. Новинки кино в хорошем качестве через торрент. На UnionPeer.org можно скачать через торрент фильмы 2014 и 2015 годов. Самые новые фильмы.

Скачать торрент От Помпеи до Исландии. Кто следующий? бесплатно через .torrent фильм мультфильм сериал

Статистика раздачи
Размер:  746 MB   |    Зарегистрирован:  17 дней   |    .torrent скачан:  34 раза   |   
Раздают:  1  
   
загрузка...
 
Автор Сообщение

Galfimbul

avatar Galfimbul


От Помпеи до Исландии. Кто следующий?

Страна: Россия
Студия: Fresh Film, Телеканал "Россия", ВГТРК
Жанр: Документальный, катастрофа
Год выпуска: 2011
Продолжительность: 00:44:30
Режиссёр: Вера Кильчевская

Описание: 15 декабря 1989 года Боинг-747 вылетает из Амстердама в Анкоридж. Самолет у берегов Аляски вдруг попадает в странное облако. Салон погружается в темноту, пассажиры чувствуют запах серы. Выходят из строя приборы, отключаются все четыре двигателя. Восемь минут самолет падает. В тот роковой день 244 человека были на волосок от катастрофы, причиной которой чуть не стал вулкан Редаут на Аляске. В фильме ученые пытаются дать ответы на ключевые вопросы, которые волнуют всех: какой вулкан будет следующим? Что ожидает человеческую цивилизацию, если вулканы взорвутся по цепочке? Захочет ли планета поглотить нас в огненном котле? Получить ответы на эти вопросы пытаются путешественники экспедиции "Огненный пояс Земли". Почти три года шесть человек будут перебираться с одного вулкана на другой - пешком, на лыжах, на автомобилях, на яхтах. Руководитель экспедиции Константин Мержоев и его смельчаки пересекут пять континентов, поднимутся на самые высокие действующие и спящие вулканы. А зрители телеканала "Россия" станут очевидцами самых грозных извержений огненных гигантов Земли.

Доп. информация:
Автор релиза -

Сэмпл: http://yadi.sk/i/qdA6O5A23YVUiM



Рекламы нет!

Качество видео: SATRip
Формат видео: AVI

Видео: XviD, 704x528 (4:3), 25.000 fps, 2143 kbps, 0.231 bit/pixel
Аудио: Русский AC3, 48000 Гц, 2ch, 192 kbps
ОбщееПолное имя : D:\От.Помпеи.до.Исландии.Кто.следующий.2011.SATRip-ylnian.aviФормат : AVIФормат/Информация : Audio Video InterleaveРазмер файла : 746 МбайтПродолжительность : 44 м. 30 с.Общий поток : 2345 Кбит/секПрограмма кодирования : VirtualDubMod 1.5.10.3 | www.virtualdub-fr.org || (build 2550/release)Библиотека кодирования : VirtualDubMod build 2550/release

ВидеоИдентификатор : 0Формат : MPEG-4 VisualПрофиль формата : Advanced [email protected]Настройки формата : BVOP1Параметр BVOP формата : 1Параметр QPel формата : НетПараметр GMC формата : Без точки переходаПараметр матрицы формата : Default (MPEG)Идентификатор кодека : XVIDИдентификатор кодека/Подсказка : XviDПродолжительность : 44 м. 30 с.Битрейт : 2143 Кбит/секШирина : 704 пикселяВысота : 528 пикселейСоотношение сторон : 4:3Частота кадров : 25,000 кадров/секЦветовое пространство : YUVСубдискретизация насыщенности : 4:2:0Битовая глубина : 8 битТип развёртки : ПрогрессивнаяМетод сжатия : С потерямиБит/(Пиксели*Кадры) : 0.231Размер потока : 682 Мбайт (91%)Библиотека кодирования : XviD 67

АудиоИдентификатор : 1Формат : AC-3Формат/Информация : Audio Coding 3Идентификатор кодека : 2000Продолжительность : 44 м. 29 с.Вид битрейта : ПостоянныйБитрейт : 192 Кбит/секКаналы : 2 каналаРасположение каналов : Front: L RЧастота : 48,0 КГцЧастота кадров : 31,250 кадров/сек (1536 SPF)Битовая глубина : 16 битМетод сжатия : С потерямиРазмер потока : 61,1 Мбайт (8%)Выравнивание : Разделение по промежуткамПродолжительность промежутка : 40 мс. (1,00 видеокадр)Время предзагрузки промежутка : 500 мс.ServiceKind/String : Complete Main


Трекер:  [ 06-Июл-2018 01:36 ]

  

Скачать .torrent

Размер .torrent файла 15 KB


Размер: 746 MB
Хэш (hash) релиза: 1da1c5960a470d4791db45d1aa2ed6e904d5bd76
Подписка на обновления:

Торренты, похожие на От Помпеи до Исландии. Кто следующий? скачать торрент

Форум Название Автор Размер S L Добавлен
Документальные фильмы и телепередачи ·· От Помпеи до Исландии. Кто следующий? (Вера Кильчевская) [2011, Документальный, SATRip] damien1990 501999616479 MB 0 0 1365423998

15:26

8-Апр-13

Еще никто не оставлял запись к записи скачать торрент От Помпеи до Исландии. Кто следующий? . Будь первым!

!Обратная связь