Hajime no Ippo | english-Magazines | Magi: The Labyrinth of Magic S1

Скачать через торрент Олег Видов. С тобой и без тебя Фильм бесплатно в хорошем качестве torrent

Скачивайте на UnionPeer.org фильмы через торрент без регистрации. Новинки кино в хорошем качестве через торрент. На UnionPeer.org можно скачать через торрент фильмы 2014 и 2015 годов. Самые новые фильмы.

Скачать торрент Олег Видов. С тобой и без тебя бесплатно через .torrent фильм мультфильм сериал

Статистика раздачи
Размер:  750 MB   |    Зарегистрирован:  17 дней   |    .torrent скачан:  37 раз   |   
Раздают:  1  
   
загрузка...
 
Автор Сообщение

Galfimbul

avatar Galfimbul


Олег Видов. С тобой и без тебя

Страна: Россия
Студия: Первый канал
Жанр: Документальный, биография
Год выпуска: 2018
Продолжительность: 00:50:03
Режиссёр: Георгий Ананов
В ролях: Олег Видов, Джоан Борстен, Сергей Видов, Галина Логинова, Ксения Рябинкина, Родион Нахапетов, Александр Митта, Валентина Теличкина, Александр Шпагин, Игорь Атаманенко

Описание: Актера Олега Видова обожали все женщины. Красавец, секс-символ, не мужчина — мечта! Всем казалось, что с такой внешностью у актера была не жизнь, а сказка. Но на пике карьеры Видов бросил все и эмигрировал в США. Что же на самом деле помешало Олегу Видову стать звездой номер один? Что сломало его судьбу? Или кто?

Доп. информация:
Автор релиза -

Сэмпл: http://yadi.sk/i/RALuFc8c3YeAAw



Рекламы нет!

Качество видео: HDTVRip
Формат видео: AVI

Видео: XviD, 720x400 (16:9), 25.000 fps, 1893 kbps, 0.263 bit/pixel
Аудио: Русский AC3, 48000 Гц, 2ch, 192 kbps
ОбщееПолное имя : D:\Олег.Видов.С.тобой.и.без.тебя.2018.HDTVRip-ylnian.aviФормат : AVIФормат/Информация : Audio Video InterleaveРазмер файла : 750 МбайтПродолжительность : 50 м. 3 с.Общий поток : 2095 Кбит/секПрограмма кодирования : VirtualDubMod 1.5.10.3 | www.virtualdub-fr.org || (build 2550/release)Библиотека кодирования : VirtualDubMod build 2550/release

ВидеоИдентификатор : 0Формат : MPEG-4 VisualПрофиль формата : Advanced [email protected]Настройки формата : BVOP1Параметр BVOP формата : 1Параметр QPel формата : НетПараметр GMC формата : Без точки переходаПараметр матрицы формата : Default (MPEG)Идентификатор кодека : XVIDИдентификатор кодека/Подсказка : XviDПродолжительность : 50 м. 3 с.Битрейт : 1893 Кбит/секШирина : 720 пикселейВысота : 400 пикселейСоотношение сторон : 16:9Частота кадров : 25,000 кадров/секЦветовое пространство : YUVСубдискретизация насыщенности : 4:2:0Битовая глубина : 8 битТип развёртки : ПрогрессивнаяМетод сжатия : С потерямиБит/(Пиксели*Кадры) : 0.263Размер потока : 678 Мбайт (90%)Библиотека кодирования : XviD 67

АудиоИдентификатор : 1Формат : AC-3Формат/Информация : Audio Coding 3Идентификатор кодека : 2000Продолжительность : 50 м. 3 с.Вид битрейта : ПостоянныйБитрейт : 192 Кбит/секКаналы : 2 каналаРасположение каналов : Front: L RЧастота : 48,0 КГцЧастота кадров : 31,250 кадров/сек (1536 SPF)Битовая глубина : 16 битМетод сжатия : С потерямиРазмер потока : 68,7 Мбайт (9%)Выравнивание : Разделение по промежуткамПродолжительность промежутка : 40 мс. (1,00 видеокадр)Время предзагрузки промежутка : 500 мс.ServiceKind/String : Complete Main


Трекер:  [ 06-Июл-2018 01:36 ]

  

Скачать .torrent

Размер .torrent файла 15 KB


Размер: 750 MB
Хэш (hash) релиза: a469d878638a37089ca690024022fb0f4d3cc8cf
Подписка на обновления:

Еще никто не оставлял запись к записи скачать торрент Олег Видов. С тобой и без тебя . Будь первым!

!Обратная связь