Le Témoin Du Mal | Secret Diary Of A Call Girl | Stargate SG-1 S03E20 1080p HEVC x265-MeGusta 26 minutes

Скачать через торрент Игорь Тальков. Я вернусь... Фильм бесплатно в хорошем качестве torrent

Скачивайте на UnionPeer.org фильмы через торрент без регистрации. Новинки кино в хорошем качестве через торрент. На UnionPeer.org можно скачать через торрент фильмы 2014 и 2015 годов. Самые новые фильмы.

Скачать торрент Игорь Тальков. Я вернусь... бесплатно через .torrent фильм мультфильм сериал

Статистика раздачи
Размер:  748 MB   |    Зарегистрирован:  12 дней   |    .torrent скачан:  39 раз   |   
Раздают:  1  
   
загрузка...
 
Автор Сообщение

Galfimbul

avatar Galfimbul


Игорь Тальков. Я вернусь...

Страна: Россия
Студия: Телеканал "Россия", ООО "АЛЬФА-ФИЛЬМ"
Жанр: Документальный, биография
Год выпуска: 2006
Продолжительность: 00:44:14
Режиссёр: Татьяна Кузнецова

Описание: Игорь Тальков был убит 6 октября 1991 года во Дворце спорта «Юбилейный» в Санкт-Петербурге во время сборного концерта звёзд советской эстрады, незадолго до своего выхода на сцену в коридоре возле собственной гримёрки. Оружие, из которого был убит музыкант, не найдено, а само убийство до настоящего времени считается нераскрытым. Поэта, композитора и певца Игоря Талькова поклонники называют пророком, предсказавшим собственную смерть и возвращение в "страну не дураков, а гениев".

Доп. информация:
Автор релиза -

Сэмпл: http://yadi.sk/i/x5lhACE43YeLmR



Рекламы нет!

Качество видео: WEB-DLRip
Формат видео: AVI

Видео: XviD, 688x528 (4:3), 25.000 fps, 2162 kbps, 0.238 bit/pixel
Аудио: Русский AC3, 48000 Гц, 2ch, 192 kbps
ОбщееПолное имя : D:\Тальков.Я.вернусь.2006.WEBDLRip-ylnian.aviФормат : AVIФормат/Информация : Audio Video InterleaveРазмер файла : 748 МбайтПродолжительность : 44 м. 13 с.Общий поток : 2363 Кбит/секПрограмма кодирования : VirtualDubMod 1.5.10.3 | www.virtualdub-fr.org || (build 2550/release)Библиотека кодирования : VirtualDubMod build 2550/release

ВидеоИдентификатор : 0Формат : MPEG-4 VisualПрофиль формата : Advanced [email protected]Настройки формата : BVOP1Параметр BVOP формата : 1Параметр QPel формата : НетПараметр GMC формата : Без точки переходаПараметр матрицы формата : Default (MPEG)Идентификатор кодека : XVIDИдентификатор кодека/Подсказка : XviDПродолжительность : 44 м. 13 с.Битрейт : 2162 Кбит/секШирина : 688 пикселейВысота : 528 пикселейСоотношение сторон : 4:3Частота кадров : 25,000 кадров/секЦветовое пространство : YUVСубдискретизация насыщенности : 4:2:0Битовая глубина : 8 битТип развёртки : ПрогрессивнаяМетод сжатия : С потерямиБит/(Пиксели*Кадры) : 0.238Размер потока : 684 Мбайт (91%)Библиотека кодирования : XviD 67

АудиоИдентификатор : 1Формат : AC-3Формат/Информация : Audio Coding 3Идентификатор кодека : 2000Продолжительность : 44 м. 13 с.Вид битрейта : ПостоянныйБитрейт : 192 Кбит/секКаналы : 2 каналаРасположение каналов : Front: L RЧастота : 48,0 КГцЧастота кадров : 31,250 кадров/сек (1536 SPF)Битовая глубина : 16 битМетод сжатия : С потерямиРазмер потока : 60,7 Мбайт (8%)Выравнивание : Разделение по промежуткамПродолжительность промежутка : 40 мс. (1,00 видеокадр)Время предзагрузки промежутка : 500 мс.ServiceKind/String : Complete Main


Трекер:  [ 06-Июл-2018 01:36 ]

  

Скачать .torrent

Размер .torrent файла 15 KB


Размер: 748 MB
Хэш (hash) релиза: 9aefb3a0008a821b0497686dbbface7143b0c216
Подписка на обновления:

Торренты, похожие на Игорь Тальков. Я вернусь... скачать торрент

Форум Название Автор Размер S L Добавлен
Документальные фильмы и телепередачи ·· Игорь Тальков - Я вернусь... (Татьяна Кузнецова) [2006 г.; документальный, биография; DVB] Galfimbul 598110908570 MB 0 0 1475474574

09:02

3-Окт-16

Еще никто не оставлял запись к записи скачать торрент Игорь Тальков. Я вернусь... . Будь первым!

!Обратная связь