Big League Wrestling Grand Slam | Rob Muller | alan watts - Terebess

Скачать через торрент Валерий Золотухин. Я никогда ничего не просил Фильм бесплатно в хорошем качестве torrent

Скачивайте на UnionPeer.org фильмы через торрент без регистрации. Новинки кино в хорошем качестве через торрент. На UnionPeer.org можно скачать через торрент фильмы 2014 и 2015 годов. Самые новые фильмы.

Скачать торрент Валерий Золотухин. Я никогда ничего не просил бесплатно через .torrent фильм мультфильм сериал

Статистика раздачи
Размер:  748 MB   |    Зарегистрирован:  13 дней   |    .torrent скачан:  35 раз   |   
Раздают:  1  
   
загрузка...
 
Автор Сообщение

Galfimbul

avatar Galfimbul


Валерий Золотухин. Я никогда ничего не просил

Страна: Россия
Студия: ВГТРК, Телеканал "Россия"
Жанр: Документальный, биография
Год выпуска: 2013
Продолжительность: 00:44:02
Режиссёр: Виктор Сапрынский

Описание: Деревенскому пареньку из глухого алтайского села Быстрый Исток выпало стать ведущим актером гремевшего на всю страну Театра на Таганке, сыграть на сцене и в кино роли Моцарта и Павла Первого, Гитлера и Суворова. Это ли не везение! Но мало кто знал, что с самого детства он боролся с тяжелым недугом – туберкулезом костей, так что каждая новая роль становилась победой над самим собой. Яркий, азартный, ненасытный и в жизни, и в работе. До сих пор театральный мир обсуждает его отношения с Владимиром Высоцким, а поклонники Бумбараша – его любовные похождения. Его откровенные до скандальности дневники перессорили многих. Еще при жизни Золотухин решил снять фильм о себе, но завершить замысел не успел. Часть этих уникальных материалов вошла в наш фильм. Каким был артист, певец, режиссер и писатель Валерий Золотухин, расскажут он сам, его друзья, коллеги и близкие: режиссеры Тимур Бекмамбетов, Леонид Хейфец, Николай Досталь, Георгий Юнгвальд-Хилькевич, актеры Сергей Безруков, Юрий Смирнов, Людмила Гладунко, композитор Владимир Сапожников, сыновья Денис, ставший священником отцом Дионисием, и Сергей, покончивший вскоре жизнь самоубийством, жена Тамара Золотухина и гражданская жена Ирина Линдт.

Доп. информация:
Автор релиза -

Сэмпл: http://yadi.sk/i/O58Wtixx3YeQig



Рекламы нет!

Качество видео: SATRip
Формат видео: AVI

Видео: XviD, 704x528 (4:3), 25.000 fps, 2173 kbps, 0.234 bit/pixel
Аудио: Русский AC3, 48000 Гц, 2ch, 192 kbps
ОбщееПолное имя : D:\Золотухин.Я.никогда.ничего.не.просил.2013.SATRip-ylnian.aviФормат : AVIФормат/Информация : Audio Video InterleaveРазмер файла : 748 МбайтПродолжительность : 44 м. 1 с.Общий поток : 2374 Кбит/секПрограмма кодирования : VirtualDubMod 1.5.10.3 | www.virtualdub-fr.org || (build 2550/release)Библиотека кодирования : VirtualDubMod build 2550/release

ВидеоИдентификатор : 0Формат : MPEG-4 VisualПрофиль формата : Advanced [email protected]Настройки формата : BVOP1Параметр BVOP формата : 1Параметр QPel формата : НетПараметр GMC формата : Без точки переходаПараметр матрицы формата : Default (MPEG)Идентификатор кодека : XVIDИдентификатор кодека/Подсказка : XviDПродолжительность : 44 м. 1 с.Битрейт : 2173 Кбит/секШирина : 704 пикселяВысота : 528 пикселейСоотношение сторон : 4:3Частота кадров : 25,000 кадров/секЦветовое пространство : YUVСубдискретизация насыщенности : 4:2:0Битовая глубина : 8 битТип развёртки : ПрогрессивнаяМетод сжатия : С потерямиБит/(Пиксели*Кадры) : 0.234Размер потока : 684 Мбайт (92%)Библиотека кодирования : XviD 67

АудиоИдентификатор : 1Формат : AC-3Формат/Информация : Audio Coding 3Идентификатор кодека : 2000Продолжительность : 44 м. 1 с.Вид битрейта : ПостоянныйБитрейт : 192 Кбит/секКаналы : 2 каналаРасположение каналов : Front: L RЧастота : 48,0 КГцЧастота кадров : 31,250 кадров/сек (1536 SPF)Битовая глубина : 16 битМетод сжатия : С потерямиРазмер потока : 60,5 Мбайт (8%)Выравнивание : Разделение по промежуткамПродолжительность промежутка : 40 мс. (1,00 видеокадр)Время предзагрузки промежутка : 500 мс.ServiceKind/String : Complete Main


Трекер:  [ 06-Июл-2018 01:36 ]

  

Скачать .torrent

Размер .torrent файла 15 KB


Размер: 748 MB
Хэш (hash) релиза: 29ff89a1b2d2187027f24c6b153922928e1b9c89
Подписка на обновления:

Еще никто не оставлял запись к записи скачать торрент Валерий Золотухин. Я никогда ничего не просил . Будь первым!

!Обратная связь