Extreme Makeover: Weight Loss Edition | Collateral HDTV 720p AC3 5.1 | Jason Martin

Скачать через торрент Андрей Панин. Невыясненные обстоятельства Фильм бесплатно в хорошем качестве torrent

Скачивайте на UnionPeer.org фильмы через торрент без регистрации. Новинки кино в хорошем качестве через торрент. На UnionPeer.org можно скачать через торрент фильмы 2014 и 2015 годов. Самые новые фильмы.

Скачать торрент Андрей Панин. Невыясненные обстоятельства бесплатно через .torrent фильм мультфильм сериал

Статистика раздачи
Размер:  749 MB   |    Зарегистрирован:  13 дней   |    .torrent скачан:  40 раз   |   
Раздают:  1  
   
загрузка...
 
Автор Сообщение

Galfimbul

avatar Galfimbul


Андрей Панин. Невыясненные обстоятельства

Страна: Россия
Студия: ООО "КОНТРАСТ", Первый канал
Жанр: Документальный, биография
Год выпуска: 2018
Продолжительность: 00:50:03
Режиссёр: Дмитрий Салынин
В ролях: Анна Панина, Нина Панина, Олеся Судзиловская, Сергей Гармаш, Виктор Гинзбург, Наталья Коляканова, Алёна Бабенко, Вера Воронкова, Иван Ургант, Юлия Меньшова, Дмитрий Астрахан, Сергей Безруков, Сергей Угрюмов, Александр Митта, Рамиль Сабитов, Игорь Петренко, Геннадий Русин

Описание: Настоящая слава пришла к Панину в 40 лет, после сериала «Бригада», где ему досталась роль коррумпированного милиционера Каверина. Режиссеры стали наперебой приглашать в кино и сериалы. Андрей параллельно снимался в пяти-семи проектах. Устав от простоя, он брался за все. Панина почти не было дома, он очень уставал, но все равно не сбавлял темпа. А усталость снимал алкоголем. А ведь такие нагрузки Андрею Панину были строго противопоказаны. Еще будучи студентом третьего курса, он вместе с другом и первой женой Татьяной попал в аварию. Актеру установили пластину в височной части черепа, посоветовав в дальнейшем беречь себя: любая травма могла привести к непоправимым последствиям. Панин работал и жил на износ. Актера нашли мертвым утром 7 марта 2013 года в его квартире. Одного. Многочисленные раны на голове стали поводом для возбуждения уголовного дела. В начале 2015 года Следственный комитет России прекратил уголовное дело по факту гибели «за отсутствием состава преступления». В честь Андрея Панина откроют музей, его именем назовут кафедру театрального искусства и даже учредят ежегодную премию «Рыжий клоун». Он и был клоуном с грустными глазами, как на автопортрете, который когда-то написал...

Доп. информация:
Автор релиза -

Сэмпл: http://yadi.sk/i/WQ8rEJXz3Yeh5i



Рекламы нет!

Качество видео: HDTVRip
Формат видео: AVI

Видео: XviD, 720x400 (16:9), 25.000 fps, 1815 kbps, 0.252 bit/pixel
Аудио: Русский AC3, 48000 Гц, 2ch, 192 kbps
ОбщееПолное имя : D:\Панин.Невыясненные.обстоятельства.2018.HDTVRip-ylnian.aviФормат : AVIФормат/Информация : Audio Video InterleaveРазмер файла : 749 МбайтПродолжительность : 51 м. 57 с.Общий поток : 2016 Кбит/секПрограмма кодирования : VirtualDubMod 1.5.10.3 | www.virtualdub-fr.org || (build 2550/release)Библиотека кодирования : VirtualDubMod build 2550/release

ВидеоИдентификатор : 0Формат : MPEG-4 VisualПрофиль формата : Advanced [email protected]Настройки формата : BVOP1Параметр BVOP формата : 1Параметр QPel формата : НетПараметр GMC формата : Без точки переходаПараметр матрицы формата : Default (MPEG)Идентификатор кодека : XVIDИдентификатор кодека/Подсказка : XviDПродолжительность : 51 м. 57 с.Битрейт : 1815 Кбит/секШирина : 720 пикселейВысота : 400 пикселейСоотношение сторон : 16:9Частота кадров : 25,000 кадров/секЦветовое пространство : YUVСубдискретизация насыщенности : 4:2:0Битовая глубина : 8 битТип развёртки : ПрогрессивнаяМетод сжатия : С потерямиБит/(Пиксели*Кадры) : 0.252Размер потока : 674 Мбайт (90%)Библиотека кодирования : XviD 67

АудиоИдентификатор : 1Формат : AC-3Формат/Информация : Audio Coding 3Идентификатор кодека : 2000Продолжительность : 51 м. 57 с.Вид битрейта : ПостоянныйБитрейт : 192 Кбит/секКаналы : 2 каналаРасположение каналов : Front: L RЧастота : 48,0 КГцЧастота кадров : 31,250 кадров/сек (1536 SPF)Битовая глубина : 16 битМетод сжатия : С потерямиРазмер потока : 71,3 Мбайт (10%)Выравнивание : Разделение по промежуткамПродолжительность промежутка : 40 мс. (1,00 видеокадр)Время предзагрузки промежутка : 500 мс.ServiceKind/String : Complete Main


Трекер:  [ 06-Июл-2018 01:36 ]

  

Скачать .torrent

Размер .torrent файла 15 KB


Размер: 749 MB
Хэш (hash) релиза: 66905f58fce446311ef2d851a203122fc2994be4
Подписка на обновления:

Еще никто не оставлял запись к записи скачать торрент Андрей Панин. Невыясненные обстоятельства . Будь первым!

!Обратная связь