Friesland | EditPlus 5 0 Build 733 + key | Download mp3

Скачать через торрент Крещение Руси Серии: 4 из 4 Фильм бесплатно в хорошем качестве torrent

Скачивайте на UnionPeer.org фильмы через торрент без регистрации. Новинки кино в хорошем качестве через торрент. На UnionPeer.org можно скачать через торрент фильмы 2014 и 2015 годов. Самые новые фильмы.

Скачать торрент Крещение Руси Серии: 4 из 4 бесплатно через .torrent фильм мультфильм сериал

Статистика раздачи
Размер:  2.91 GB   |    Зарегистрирован:  10 дней   |    .torrent скачан:  33 раза   |   
Раздают:  1  
   
загрузка...
 
Автор Сообщение

Galfimbul

avatar Galfimbul


Крещение Руси

Страна: Россия
Студия: Первый канал, Стар Медиа
Жанр: Документальный, история, религия
Год выпуска: 2016
Продолжительность: 4 x ~ 00:45:00
Режиссёр: Максим Беспалый
В ролях: Андрей Курилов, Антон Пампушный, Екатерина Беспалая, Иван Латушко, Евгений Журавкин, Дмитрий Митюрич, Евгения Афонская, Юлия Харьковская, Сергей Халиченко, Валерий Лукьянов, Виктор Куклин

Описание: Проект «Крещение Руси» рассказывает об удивительном периоде в истории, связанным с приходом и распространением христианства на территории Древней Руси. Из фильма зрители узнают, как складывались взгляды и религиозные убеждения людей того времени, как менялся политическим менталитет, как зарождалось то, что сегодня мы называем древнерусской культурой и духовностью - все то, что в последствии подарило нам великую святую Русь с ее тысячелетней историей и непрерывной связью с сегодняшним днем.

Доп. информация:
Автор релиза -

Сэмпл: http://yadi.sk/i/YiGyg2rn3YBDWb



Рекламы нет!

Качество видео: WEB-DLRip
Формат видео: AVI

Видео: XviD, 720x400 (16:9), 25.000 fps, ~2100 kbps, 0.295 bit/pixel
Аудио: Русский AC3, 48000 Гц, 2ch, 192 kbps
ОбщееПолное имя : D:\Крещение.Руси.2016.WEBDLRip-ylnian\01-Тьма.aviФормат : AVIФормат/Информация : Audio Video InterleaveРазмер файла : 745 МбайтПродолжительность : 42 м. 9 с.Общий поток : 2472 Кбит/секПрограмма кодирования : VirtualDubMod 1.5.10.3 | www.virtualdub-fr.org || (build 2550/release)Библиотека кодирования : VirtualDubMod build 2550/release

ВидеоИдентификатор : 0Формат : MPEG-4 VisualПрофиль формата : Advanced [email protected]Настройки формата : BVOP1Параметр BVOP формата : 1Параметр QPel формата : НетПараметр GMC формата : Без точки переходаПараметр матрицы формата : Default (MPEG)Идентификатор кодека : XVIDИдентификатор кодека/Подсказка : XviDПродолжительность : 42 м. 9 с.Битрейт : 2270 Кбит/секШирина : 720 пикселейВысота : 400 пикселейСоотношение сторон : 16:9Частота кадров : 25,000 кадров/секЦветовое пространство : YUVСубдискретизация насыщенности : 4:2:0Битовая глубина : 8 битТип развёртки : ПрогрессивнаяМетод сжатия : С потерямиБит/(Пиксели*Кадры) : 0.315Размер потока : 684 Мбайт (92%)Библиотека кодирования : XviD 67

АудиоИдентификатор : 1Формат : AC-3Формат/Информация : Audio Coding 3Идентификатор кодека : 2000Продолжительность : 42 м. 9 с.Вид битрейта : ПостоянныйБитрейт : 192 Кбит/секКаналы : 2 каналаРасположение каналов : Front: L RЧастота : 48,0 КГцЧастота кадров : 31,250 кадров/сек (1536 SPF)Битовая глубина : 16 битМетод сжатия : С потерямиРазмер потока : 57,9 Мбайт (8%)Выравнивание : Разделение по промежуткамПродолжительность промежутка : 40 мс. (1,00 видеокадр)Время предзагрузки промежутка : 500 мс.ServiceKind/String : Complete Main

ОбщееПолное имя : D:\Крещение.Руси.2016.WEBDLRip-ylnian\02-Зарница.aviФормат : AVIФормат/Информация : Audio Video InterleaveРазмер файла : 748 МбайтПродолжительность : 46 м. 50 с.Общий поток : 2233 Кбит/секПрограмма кодирования : VirtualDubMod 1.5.10.3 | www.virtualdub-fr.org || (build 2550/release)Библиотека кодирования : VirtualDubMod build 2550/release

ВидеоИдентификатор : 0Формат : MPEG-4 VisualПрофиль формата : Advanced [email protected]Настройки формата : BVOP1Параметр BVOP формата : 1Параметр QPel формата : НетПараметр GMC формата : Без точки переходаПараметр матрицы формата : Default (MPEG)Идентификатор кодека : XVIDИдентификатор кодека/Подсказка : XviDПродолжительность : 46 м. 50 с.Битрейт : 2032 Кбит/секШирина : 720 пикселейВысота : 400 пикселейСоотношение сторон : 16:9Частота кадров : 25,000 кадров/секЦветовое пространство : YUVСубдискретизация насыщенности : 4:2:0Битовая глубина : 8 битТип развёртки : ПрогрессивнаяМетод сжатия : С потерямиБит/(Пиксели*Кадры) : 0.282Размер потока : 681 Мбайт (91%)Библиотека кодирования : XviD 67

АудиоИдентификатор : 1Формат : AC-3Формат/Информация : Audio Coding 3Идентификатор кодека : 2000Продолжительность : 46 м. 50 с.Вид битрейта : ПостоянныйБитрейт : 192 Кбит/секКаналы : 2 каналаРасположение каналов : Front: L RЧастота : 48,0 КГцЧастота кадров : 31,250 кадров/сек (1536 SPF)Битовая глубина : 16 битМетод сжатия : С потерямиРазмер потока : 64,3 Мбайт (9%)Выравнивание : Разделение по промежуткамПродолжительность промежутка : 40 мс. (1,00 видеокадр)Время предзагрузки промежутка : 500 мс.ServiceKind/String : Complete Main

ОбщееПолное имя : D:\Крещение.Руси.2016.WEBDLRip-ylnian\03-Денница.aviФормат : AVIФормат/Информация : Audio Video InterleaveРазмер файла : 746 МбайтПродолжительность : 44 м. 53 с.Общий поток : 2322 Кбит/секПрограмма кодирования : VirtualDubMod 1.5.10.3 | www.virtualdub-fr.org || (build 2550/release)Библиотека кодирования : VirtualDubMod build 2550/release

ВидеоИдентификатор : 0Формат : MPEG-4 VisualПрофиль формата : Advanced [email protected]Настройки формата : BVOP1Параметр BVOP формата : 1Параметр QPel формата : НетПараметр GMC формата : Без точки переходаПараметр матрицы формата : Default (MPEG)Идентификатор кодека : XVIDИдентификатор кодека/Подсказка : XviDПродолжительность : 44 м. 53 с.Битрейт : 2120 Кбит/секШирина : 720 пикселейВысота : 400 пикселейСоотношение сторон : 16:9Частота кадров : 25,000 кадров/секЦветовое пространство : YUVСубдискретизация насыщенности : 4:2:0Битовая глубина : 8 битТип развёртки : ПрогрессивнаяМетод сжатия : С потерямиБит/(Пиксели*Кадры) : 0.295Размер потока : 681 Мбайт (91%)Библиотека кодирования : XviD 67

АудиоИдентификатор : 1Формат : AC-3Формат/Информация : Audio Coding 3Идентификатор кодека : 2000Продолжительность : 44 м. 53 с.Вид битрейта : ПостоянныйБитрейт : 192 Кбит/секКаналы : 2 каналаРасположение каналов : Front: L RЧастота : 48,0 КГцЧастота кадров : 31,250 кадров/сек (1536 SPF)Битовая глубина : 16 битМетод сжатия : С потерямиРазмер потока : 61,6 Мбайт (8%)Выравнивание : Разделение по промежуткамПродолжительность промежутка : 40 мс. (1,00 видеокадр)Время предзагрузки промежутка : 500 мс.ServiceKind/String : Complete Main

ОбщееПолное имя : D:\Крещение.Руси.2016.WEBDLRip-ylnian\04-Солнце.aviФормат : AVIФормат/Информация : Audio Video InterleaveРазмер файла : 746 МбайтПродолжительность : 48 м. 1 с.Общий поток : 2171 Кбит/секПрограмма кодирования : VirtualDubMod 1.5.10.3 | www.virtualdub-fr.org || (build 2550/release)Библиотека кодирования : VirtualDubMod build 2550/release

ВидеоИдентификатор : 0Формат : MPEG-4 VisualПрофиль формата : Advanced [email protected]Настройки формата : BVOP1Параметр BVOP формата : 1Параметр QPel формата : НетПараметр GMC формата : Без точки переходаПараметр матрицы формата : Default (MPEG)Идентификатор кодека : XVIDИдентификатор кодека/Подсказка : XviDПродолжительность : 48 м. 1 с.Битрейт : 1970 Кбит/секШирина : 720 пикселейВысота : 400 пикселейСоотношение сторон : 16:9Частота кадров : 25,000 кадров/секЦветовое пространство : YUVСубдискретизация насыщенности : 4:2:0Битовая глубина : 8 битТип развёртки : ПрогрессивнаяМетод сжатия : С потерямиБит/(Пиксели*Кадры) : 0.274Размер потока : 676 Мбайт (91%)Библиотека кодирования : XviD 67

АудиоИдентификатор : 1Формат : AC-3Формат/Информация : Audio Coding 3Идентификатор кодека : 2000Продолжительность : 48 м. 1 с.Вид битрейта : ПостоянныйБитрейт : 192 Кбит/секКаналы : 2 каналаРасположение каналов : Front: L RЧастота : 48,0 КГцЧастота кадров : 31,250 кадров/сек (1536 SPF)Битовая глубина : 16 битМетод сжатия : С потерямиРазмер потока : 65,9 Мбайт (9%)Выравнивание : Разделение по промежуткамПродолжительность промежутка : 40 мс. (1,00 видеокадр)Время предзагрузки промежутка : 500 мс.ServiceKind/String : Complete Main


Трекер:  [ 06-Июл-2018 01:12 ]

  

Скачать .torrent

Размер .torrent файла 15 KB


Размер: 2.91 GB
Хэш (hash) релиза: f64207c3e207242e1396ad659a0d1f3ae74de944
Подписка на обновления:

Еще никто не оставлял запись к записи скачать торрент Крещение Руси Серии: 4 из 4 . Будь первым!

!Обратная связь