Running Man Episode 7 | Renai Boukun: Season 1 | REVOLUTION DIGITAL March 2012 Singapore

Скачать через торрент Николай Гоголь. Тайна смерти Фильм бесплатно в хорошем качестве torrent

Скачивайте на UnionPeer.org фильмы через торрент без регистрации. Новинки кино в хорошем качестве через торрент. На UnionPeer.org можно скачать через торрент фильмы 2014 и 2015 годов. Самые новые фильмы.

Скачать торрент Николай Гоголь. Тайна смерти бесплатно через .torrent фильм мультфильм сериал

Статистика раздачи
Размер:  747 MB   |    Зарегистрирован:  13 дней   |    .torrent скачан:  36 раз   |   
Раздают:  1  
   
загрузка...
 
Автор Сообщение

Galfimbul

avatar Galfimbul


Николай Гоголь. Тайна смерти

Страна: Россия
Студия: Телекомпания "Останкино", Первый канал
Жанр: Документальный, биография
Год выпуска: 2009
Продолжительность: 00:52:09
Режиссёр: Сергей Кожевников
Ведущий: Сергей Медведев

Описание: Большой любитель розыгрышей, он, и покинув этот мир, оставил нам немало удивительных, порой мистических загадок. Слухи о пропаже головы Гоголя из склепа, о его страшном пробуждении в могиле, о жутких предсмертных видениях писателя, слишком пристально изучившего нечистую силу – все это будоражило читателей более сотни лет... Авторы документального фильма «Николай Гоголь. Тайна смерти» попытаются приоткрыть завесу тайны смерти писателя Н.В.Гоголя и озвучат основные версии о причине его смерти.

Доп. информация:
Автор релиза -

Сэмпл: http://yadi.sk/i/O6hPmoLU3YKMZ8



Рекламы нет!

Качество видео: WEB-DLRip
Формат видео: AVI

Видео: XviD, 720x448 (16:10), 25.000 fps, 1800 kbps, 0.223 bit/pixel
Аудио: Русский AC3, 48000 Гц, 2ch, 192 kbps
ОбщееПолное имя : D:\Гоголь.Тайна.смерти.2009.WEBDLRip-ylnian.aviФормат : AVIФормат/Информация : Audio Video InterleaveРазмер файла : 747 МбайтПродолжительность : 52 м. 9 с.Общий поток : 2001 Кбит/секПрограмма кодирования : VirtualDubMod 1.5.10.3 | www.virtualdub-fr.org || (build 2550/release)Библиотека кодирования : VirtualDubMod build 2550/release

ВидеоИдентификатор : 0Формат : MPEG-4 VisualПрофиль формата : Advanced [email protected]Настройки формата : BVOP1Параметр BVOP формата : 1Параметр QPel формата : НетПараметр GMC формата : Без точки переходаПараметр матрицы формата : Default (MPEG)Идентификатор кодека : XVIDИдентификатор кодека/Подсказка : XviDПродолжительность : 52 м. 9 с.Битрейт : 1800 Кбит/секШирина : 720 пикселейВысота : 448 пикселейСоотношение сторон : 16:10Частота кадров : 25,000 кадров/секЦветовое пространство : YUVСубдискретизация насыщенности : 4:2:0Битовая глубина : 8 битТип развёртки : ПрогрессивнаяМетод сжатия : С потерямиБит/(Пиксели*Кадры) : 0.223Размер потока : 671 Мбайт (90%)Библиотека кодирования : XviD 67

АудиоИдентификатор : 1Формат : AC-3Формат/Информация : Audio Coding 3Идентификатор кодека : 2000Продолжительность : 52 м. 8 с.Вид битрейта : ПостоянныйБитрейт : 192 Кбит/секКаналы : 2 каналаРасположение каналов : Front: L RЧастота : 48,0 КГцЧастота кадров : 31,250 кадров/сек (1536 SPF)Битовая глубина : 16 битМетод сжатия : С потерямиРазмер потока : 71,6 Мбайт (10%)Выравнивание : Разделение по промежуткамПродолжительность промежутка : 40 мс. (1,00 видеокадр)Время предзагрузки промежутка : 500 мс.ServiceKind/String : Complete Main


Трекер:  [ 06-Июл-2018 01:06 ]

  

Скачать .torrent

Размер .torrent файла 15 KB


Размер: 747 MB
Хэш (hash) релиза: e6c92972125e58e47d3834647e50001f7d1d777f
Подписка на обновления:

Еще никто не оставлял запись к записи скачать торрент Николай Гоголь. Тайна смерти . Будь первым!

!Обратная связь