Howard Ferguson Jr. | Game of Thrones - Season 6 - 1080p HDTV - x265 HEVC - 6CH - ShAaNiG | Grégory Fitoussi

Скачать через торрент Алла Пугачёва. Жизнь после шоу Фильм бесплатно в хорошем качестве torrent

Скачивайте на UnionPeer.org фильмы через торрент без регистрации. Новинки кино в хорошем качестве через торрент. На UnionPeer.org можно скачать через торрент фильмы 2014 и 2015 годов. Самые новые фильмы.

Скачать торрент Алла Пугачёва. Жизнь после шоу бесплатно через .torrent фильм мультфильм сериал

Статистика раздачи
Размер:  747 MB   |    Зарегистрирован:  13 дней   |    .torrent скачан:  32 раза   |   
Раздают:  1  
   
загрузка...
 
Автор Сообщение

Galfimbul

avatar Galfimbul


Алла Пугачёва. Жизнь после шоу

Страна: Россия
Студия: ООО "Южный Порт Студиоз", Первый канал
Жанр: Документальный, биография
Год выпуска: 2011
Продолжительность: 00:52:06
Режиссёр: Максим Баканович
В ролях: Алла Пугачёва, Кристина Орбакайте, Максим Галкин, Галина Волчек, Илья Резник, Андрей Кончаловский, Дэни Байсаров

Описание: Как складывается жизнь самой известной певицы российской эстрады после официального объявления весной 2010 года о завершении концертной деятельности? Как строится её день? Чем она занимается, о чём мечтает? Об этом авторам фильма рассказала сама Алла Борисовна. Съемочная группа собирала материал для этого фильма почти год. И каждый раз во время встречи Примадонна была разной. Спокойной и умиротворенной — в своем любимом загородном доме на Истре. Нервной и нетерпимой — на озвучании роли в фильме «Щелкунчик и крысиный король 3D». Уставшей и вымотанной — после концерта «Песни для Аллы». И захваченной творческим процессом — на импровизированной репетиции в театре «Современник».

Доп. информация:
Автор релиза -

Сэмпл: http://yadi.sk/i/aNaLmbBq3YL2Qy



Рекламы нет!

Качество видео: WEB-DLRip
Формат видео: AVI

Видео: XviD, 720x400 (16:9), 25.000 fps, 1802 kbps, 0.25 bit/pixel
Аудио: Русский AC3, 48000 Гц, 2ch, 192 kbps
ОбщееПолное имя : D:\Пугачева.Жизнь.после.шоу.2011.WEBDLRip-ylnian.aviФормат : AVIФормат/Информация : Audio Video InterleaveРазмер файла : 747 МбайтПродолжительность : 52 м. 6 с.Общий поток : 2004 Кбит/секПрограмма кодирования : VirtualDubMod 1.5.10.3 | www.virtualdub-fr.org || (build 2550/release)Библиотека кодирования : VirtualDubMod build 2550/release

ВидеоИдентификатор : 0Формат : MPEG-4 VisualПрофиль формата : Advanced [email protected]Настройки формата : BVOP1Параметр BVOP формата : 1Параметр QPel формата : НетПараметр GMC формата : Без точки переходаПараметр матрицы формата : Default (MPEG)Идентификатор кодека : XVIDИдентификатор кодека/Подсказка : XviDПродолжительность : 52 м. 6 с.Битрейт : 1802 Кбит/секШирина : 720 пикселейВысота : 400 пикселейСоотношение сторон : 16:9Частота кадров : 25,000 кадров/секЦветовое пространство : YUVСубдискретизация насыщенности : 4:2:0Битовая глубина : 8 битТип развёртки : ПрогрессивнаяМетод сжатия : С потерямиБит/(Пиксели*Кадры) : 0.250Размер потока : 672 Мбайт (90%)Библиотека кодирования : XviD 67

АудиоИдентификатор : 1Формат : AC-3Формат/Информация : Audio Coding 3Идентификатор кодека : 2000Продолжительность : 52 м. 6 с.Вид битрейта : ПостоянныйБитрейт : 192 Кбит/секКаналы : 2 каналаРасположение каналов : Front: L RЧастота : 48,0 КГцЧастота кадров : 31,250 кадров/сек (1536 SPF)Битовая глубина : 16 битМетод сжатия : С потерямиРазмер потока : 71,5 Мбайт (10%)Выравнивание : Разделение по промежуткамПродолжительность промежутка : 40 мс. (1,00 видеокадр)Время предзагрузки промежутка : 500 мс.ServiceKind/String : Complete Main
Сравнение скриншотов с SATRip - http://screenshotcomparison.com/comparison/115719 - в моём релизе выше чёткость, полнее кадр, нет рекламы


Трекер:  [ 06-Июл-2018 01:06 ]

  

Скачать .torrent

Размер .torrent файла 15 KB


Размер: 747 MB
Хэш (hash) релиза: da8e24c33ed6dcb3f1e2247bbdabee6aa6b25f3a
Подписка на обновления:

Еще никто не оставлял запись к записи скачать торрент Алла Пугачёва. Жизнь после шоу . Будь первым!

!Обратная связь