The Batman | Read Online | Tokyo Ravens | 480p | BDRip | Dual Audio

Скачать через торрент Маршал Конев. Иван в Европе Фильм бесплатно в хорошем качестве torrent

Скачивайте на UnionPeer.org фильмы через торрент без регистрации. Новинки кино в хорошем качестве через торрент. На UnionPeer.org можно скачать через торрент фильмы 2014 и 2015 годов. Самые новые фильмы.

Скачать торрент Маршал Конев. Иван в Европе бесплатно через .torrent фильм мультфильм сериал

Статистика раздачи
Размер:  741 MB   |    Зарегистрирован:  13 дней   |    .torrent скачан:  32 раза   |   
Раздают:  1  
   
загрузка...
 
Автор Сообщение

Galfimbul

avatar Galfimbul


Маршал Конев. Иван в Европе

Страна: Россия
Студия: Телеканал "Россия", ВГТРК, ООО "ГАЛАКОНЦЕРТ"
Жанр: Документальный, биография
Год выпуска: 2018
Продолжительность: 00:44:48
Режиссёр: Татьяна Корнеева

Описание: Маршал Конев и бойцы его 1-го Украинского фронта оставили потомкам пример того, как русские Иваны со свойственным национальному характеру великодушием рисковали жизнями ради самого светлого и доброго, во что верили. И этот пример достоин подражания. В фильме принимают участие дочь и внучка знаменитого маршала.

Доп. информация:
Автор релиза -
Источник для рипа - HDTV 1080i TS - моя запись с канала Россия-1 HD

Сэмпл: http://yadi.sk/i/qR1HKEpu3YNGBh



Рекламы нет!

Качество видео: HDTVRip
Формат видео: AVI

Видео: XviD, 720x400 (16:9), 25.000 fps, 2112 kbps, 0.293 bit/pixel
Аудио: Русский AC3, 48000 Гц, 2ch, 192 kbps
ОбщееПолное имя : D:\Маршал.Конев_Иван.в.Европе.2018.HDTVRip-ylnian.aviФормат : AVIФормат/Информация : Audio Video InterleaveРазмер файла : 741 МбайтПродолжительность : 44 м. 47 с.Общий поток : 2314 Кбит/секПрограмма кодирования : VirtualDubMod 1.5.10.3 | www.virtualdub-fr.org || (build 2550/release)Библиотека кодирования : VirtualDubMod build 2550/release

ВидеоИдентификатор : 0Формат : MPEG-4 VisualПрофиль формата : Advanced [email protected]Настройки формата : BVOP1Параметр BVOP формата : 1Параметр QPel формата : НетПараметр GMC формата : Без точки переходаПараметр матрицы формата : Default (MPEG)Идентификатор кодека : XVIDИдентификатор кодека/Подсказка : XviDПродолжительность : 44 м. 47 с.Битрейт : 2112 Кбит/секШирина : 720 пикселейВысота : 400 пикселейСоотношение сторон : 16:9Частота кадров : 25,000 кадров/секЦветовое пространство : YUVСубдискретизация насыщенности : 4:2:0Битовая глубина : 8 битТип развёртки : ПрогрессивнаяМетод сжатия : С потерямиБит/(Пиксели*Кадры) : 0.293Размер потока : 677 Мбайт (91%)Библиотека кодирования : XviD 67

АудиоИдентификатор : 1Формат : AC-3Формат/Информация : Audio Coding 3Идентификатор кодека : 2000Продолжительность : 44 м. 47 с.Вид битрейта : ПостоянныйБитрейт : 192 Кбит/секКаналы : 2 каналаРасположение каналов : Front: L RЧастота : 48,0 КГцЧастота кадров : 31,250 кадров/сек (1536 SPF)Битовая глубина : 16 битМетод сжатия : С потерямиРазмер потока : 61,5 Мбайт (8%)Выравнивание : Разделение по промежуткамПродолжительность промежутка : 40 мс. (1,00 видеокадр)Время предзагрузки промежутка : 500 мс.ServiceKind/String : Complete Main


Трекер:  [ 06-Июл-2018 01:06 ]

  

Скачать .torrent

Размер .torrent файла 15 KB


Размер: 741 MB
Хэш (hash) релиза: ef684a952e37ce8c0250e8b7c9f4f054eec5fc3f
Подписка на обновления:

Еще никто не оставлял запись к записи скачать торрент Маршал Конев. Иван в Европе . Будь первым!

!Обратная связь