Click Here to Login | Brush Strokes (2018) | In aller Freundschaft – Die jungen Ärzte

Скачать через торрент А.С. Пушкин. Разговор о нелепых подозрениях Фильм бесплатно в хорошем качестве torrent

Скачивайте на UnionPeer.org фильмы через торрент без регистрации. Новинки кино в хорошем качестве через торрент. На UnionPeer.org можно скачать через торрент фильмы 2014 и 2015 годов. Самые новые фильмы.

Скачать торрент А.С. Пушкин. Разговор о нелепых подозрениях бесплатно через .torrent фильм мультфильм сериал

Статистика раздачи
Размер:  751 MB   |    Зарегистрирован:  12 дней   |    .torrent скачан:  31 раз   |   
Раздают:  1  
   
загрузка...
 
Автор Сообщение

Galfimbul

avatar Galfimbul


А.С. Пушкин. Разговор о нелепых подозрениях

Страна: Россия
Студия: ЗАО "Телекомпания "Останкино", Первый канал
Жанр: Документальный, биография
Год выпуска: 2017
Продолжительность: 00:52:31
Режиссёр: Сергей Браверман
Ведущий: Сергей Медведев

Описание: Фильм о последних мгновениях жизни великого русского поэта Александра Сергеевича Пушкина и первых днях после его смерти. О заключительных аккордах его мощной и ярко прожитой жизни и ее финале, невыясненном и покрытым тайной по сей день.

Доп. информация:
Автор релиза -

Сэмпл: http://yadi.sk/i/OX1s7oEO3YSYWF



Рекламы нет!

Качество видео: WEB-DLRip
Формат видео: AVI

Видео: XviD, 720x400 (16:9), 25.000 fps, 1799 kbps, 0.25 bit/pixel
Аудио: Русский AC3, 48000 Гц, 2ch, 192 kbps
ОбщееПолное имя : D:\Пушкин.Разговор.о.нелепых.подозрениях.2017.WEBDLRip-ylnian.aviФормат : AVIФормат/Информация : Audio Video InterleaveРазмер файла : 751 МбайтПродолжительность : 52 м. 31 с.Общий поток : 2000 Кбит/секПрограмма кодирования : VirtualDubMod 1.5.10.3 | www.virtualdub-fr.org || (build 2550/release)Библиотека кодирования : VirtualDubMod build 2550/release

ВидеоИдентификатор : 0Формат : MPEG-4 VisualПрофиль формата : Advanced [email protected]Настройки формата : BVOP1Параметр BVOP формата : 1Параметр QPel формата : НетПараметр GMC формата : Без точки переходаПараметр матрицы формата : Default (MPEG)Идентификатор кодека : XVIDИдентификатор кодека/Подсказка : XviDПродолжительность : 52 м. 31 с.Битрейт : 1799 Кбит/секШирина : 720 пикселейВысота : 400 пикселейСоотношение сторон : 16:9Частота кадров : 25,000 кадров/секЦветовое пространство : YUVСубдискретизация насыщенности : 4:2:0Битовая глубина : 8 битТип развёртки : ПрогрессивнаяМетод сжатия : С потерямиБит/(Пиксели*Кадры) : 0.250Размер потока : 676 Мбайт (90%)Библиотека кодирования : XviD 67

АудиоИдентификатор : 1Формат : AC-3Формат/Информация : Audio Coding 3Идентификатор кодека : 2000Продолжительность : 52 м. 30 с.Вид битрейта : ПостоянныйБитрейт : 192 Кбит/секКаналы : 2 каналаРасположение каналов : Front: L RЧастота : 48,0 КГцЧастота кадров : 31,250 кадров/сек (1536 SPF)Битовая глубина : 16 битМетод сжатия : С потерямиРазмер потока : 72,1 Мбайт (10%)Выравнивание : Разделение по промежуткамПродолжительность промежутка : 40 мс. (1,00 видеокадр)Время предзагрузки промежутка : 500 мс.ServiceKind/String : Complete Main


Трекер:  [ 06-Июл-2018 01:06 ]

  

Скачать .torrent

Размер .torrent файла 15 KB


Размер: 751 MB
Хэш (hash) релиза: fc47fd35f1704bae626f5f976f2405b00a792731
Подписка на обновления:

Еще никто не оставлял запись к записи скачать торрент А.С. Пушкин. Разговор о нелепых подозрениях . Будь первым!

!Обратная связь