[MULTI] [UL+UR] Sahara 2005 OpenMatte 1080p BluRay DD5 1 x264-DON | Rock and Roll | MH Themes

Скачать через торрент Время новостей Донбасса. Июль 2018 Фильм бесплатно в хорошем качестве torrent

Скачивайте на UnionPeer.org фильмы через торрент без регистрации. Новинки кино в хорошем качестве через торрент. На UnionPeer.org можно скачать через торрент фильмы 2014 и 2015 годов. Самые новые фильмы.

Скачать торрент Время новостей Донбасса. Июль 2018 бесплатно через .torrent фильм мультфильм сериал

Статистика раздачи
Размер:  928 MB   |    Зарегистрирован:  12 дней   |    .torrent скачан:  31 раз   |   
Раздают:  1  
   
загрузка...
 
Автор Сообщение

Galfimbul

avatar Galfimbul


Время новостей Донбасса. Июль 2018

Дата/Год выпуска: 2018
Страна: Украина
Жанр: информационная программа
Продолжительность: 4x15 мин.
Перевод: Не требуется
Русские субтитры: нет

Оригинальная аудиодорожка: русский
Ведущие: Сергей Грунов и Юлия Меньшакирова
Телеканал: ДонбассОписание: Уникальное видео и наиболее важная информация! «Время новостей Донбасса» ежедневно показывает то, что жители региона обсуждают потом неделями. Нас смотрят телезрители Донецкой и Луганской областей, а цитируют интернет-издания всей Украины. «Время новостей Донбасса» – единственная в регионе программа, журналисты которой информируют население в прямых включениях с места события. Мы делаем лучшие региональные новости. Это доказывают рейтинги и признали эксперты Национальной телевизионной премии «Телетриумф-2012».

«Время новостей Донбасса» – это результат успешного сотрудничества журналистов и телезрителей. Как поделиться своей новостью, видео и стать героем программы – смотрите в разделе «Ты-Очевидец». Кроме того мы есть ВКонтакте и Facebook. До встречи в телевизионном эфире!

Доп. информация: Программа на русском языке, но украинская речь присутствует. Время в списке выпусков указано киевское.
Сэмпл: http://www.sendspace.com/file/n1v9g4

качество: DVB
формат: TS/M2TS
Видео: MPEG4 Video (H264) 720x576 (4:3) ~1845kbps 25fps
Аудио: MPEG Audio 48kHz 1ch 128kbps
1. 2 июля 2018 года (18:00).
2. 3 июля 2018 года (18:00).
3. 4 июля 2018 года (18:00).
4. 5 июля 2018 года (18:00).
GeneralID : 1 (0x1)Complete name : F:\Мои раздачи\Новости\2018\Время новостей Донбасса\Время новостей Донбасса. Июль 2018\[2018-07-02 18-00] Час новин Донбасу.tsFormat : MPEG-TSFile size : 223 MiBDuration : 15 min 47 sOverall bit rate mode : VariableOverall bit rate : 1 974 kb/s

VideoID : 6651 (0x19FB)Menu ID : 1 (0x1)Format : AVCFormat/Info : Advanced Video CodecFormat profile : [email protected] settings, CABAC : YesFormat settings, ReFrames : 4 framesFormat settings, GOP : M=3, N=24Codec ID : 27Duration : 15 min 47 sBit rate : 1 747 kb/sWidth : 720 pixelsHeight : 576 pixelsDisplay aspect ratio : 4:3Frame rate : 25.000 FPSStandard : PALColor space : YUVChroma subsampling : 4:2:0Bit depth : 8 bitsScan type : MBAFFScan type, store method : Interleaved fieldsScan order : Top Field FirstBits/(Pixel*Frame) : 0.169Stream size : 197 MiB (89%)Color range : Limited

AudioID : 6653 (0x19FD)Menu ID : 1 (0x1)Format : MPEG AudioFormat version : Version 1Format profile : Layer 2Codec ID : 3Duration : 15 min 47 sBit rate mode : ConstantBit rate : 128 kb/sChannel(s) : 1 channelSampling rate : 48.0 kHzCompression mode : LossyStream size : 14.5 MiB (6%)Language : Ukrainian
Внимание! Раздача ведётся путём добавления новых выпусков; при каждом добавлении создаётся новый торрент. Чтобы начать докачку нового выпуска, пользователям необходимо сделать следующее:
(1) остановить скачивание,
(2) удалить старый торрент у себя из клиента (старые серии удалять не надо),
(3) скачать новый торрент и запустить его у себя в клиенте вместо старого, при этом указать клиенту путь в старую папку куда и должно происходить скачивание новых выпусков.

Ваш клиент при этом должен произвести хеширование (проверку) старой папки (если не производит сам - помогите ему сделать это). В результате он будет докачивать только те выпуски, которых у Вас ещё нет. Старые выпуски при этом не удаляются, а продолжают раздаваться!

Eсли Вы уже удалили старые выпуски, то предотвратить их повторную закачку можно, сняв галочки в соответствующих местах при запуске нового торрента. По возможности, желательно не удалять старые выпуски как можно дольше, чтобы релизёр не только продолжал раздавать старые выпуски, но и смог сконцентрироваться на новых.


Трекер:  [ 06-Июл-2018 00:42 ]

  

Скачать .torrent

Размер .torrent файла 19 KB


Размер: 928 MB
Хэш (hash) релиза: c840b192722019012b37fd7854dce96600334e8d
Подписка на обновления:

Еще никто не оставлял запись к записи скачать торрент Время новостей Донбасса. Июль 2018 . Будь первым!

!Обратная связь