Rosemary Beach #3 - Forever Too Far | Explained S01E05 Cryptocurrency 720p NF WEB-DL DD5 1 x264-NTb 26 minutes | Love That Makes You Cry (Itsuka Kono Koi wo Omoidashite Kitto Naite Shimau)

Скачать через торрент Новости BBC на Дожде BBC News Фильм бесплатно в хорошем качестве torrent

Скачивайте на UnionPeer.org фильмы через торрент без регистрации. Новинки кино в хорошем качестве через торрент. На UnionPeer.org можно скачать через торрент фильмы 2014 и 2015 годов. Самые новые фильмы.

Скачать торрент Новости BBC на Дожде BBC News бесплатно через .torrent фильм мультфильм сериал

Статистика раздачи
Размер:  770 MB   |    Зарегистрирован:  10 дней   |    .torrent скачан:  30 раз   |   
Раздают:  1  
   
загрузка...
 
Автор Сообщение

Galfimbul

avatar Galfimbul


Новости BBC на Дожде / BBC News (Июль 2018)

Дата/Год выпуска: 2018
Страна: Великобритания
Жанр: информационная программа
Продолжительность: 4x26 мин.
Перевод: Не требуется
Русские субтитры: нет

Оригинальная аудиодорожка: русский
Ведущий: Олег Антоненко
Телеканал: ДождьОписание: Русская служба Би-би-си в эфире телеканала "Дождь". Дважды в день британские журналисты готовят специально для нашего телеканала сюжеты обо всем, что происходит в России и мире. Эти выпуски — это чисто английский взгляд на события. В программе вы можете увидеть, каким британцы видят настоящее и будущее: политики, экономики, социального развития общества, науки и техники. Подключись к миру с Русской службой Би-би-си: по будням в 16:05 и в 19:00. Следите за анонсами программ в твиттере — @tvrain и @bbcrussian.
Сэмпл: http://www.sendspace.com/file/cen6xd

качество: SATRip
формат: AVI
Видео: Xvid 720x400 (16:9) ~896kbps 25fps
Аудио: MP3 128kbps 48kHz 1ch
1. 2 июля 2018 года (19:00).
2. 3 июля 2018 года (19:00).
3. 4 июля 2018 года (19:00).
4. 5 июля 2018 года (19:00).
GeneralComplete name : F:\Мои раздачи\Новости\2018\BBC News\BBC News. Июль 2018\[2018-07-02 19-00] BBC News.aviFormat : AVIFormat/Info : Audio Video InterleaveFile size : 192 MiBDuration : 25 min 59 sOverall bit rate : 1 032 kb/s

VideoID : 0Format : MPEG-4 VisualFormat profile : Advanced [email protected] settings, BVOP : 2Format settings, QPel : NoFormat settings, GMC : No warppointsFormat settings, Matrix : Default (H.263)Codec ID : XVIDCodec ID/Hint : XviDDuration : 25 min 59 sBit rate : 894 kb/sWidth : 720 pixelsHeight : 400 pixelsDisplay aspect ratio : 16:9Frame rate : 25.000 FPSColor space : YUVChroma subsampling : 4:2:0Bit depth : 8 bitsScan type : ProgressiveCompression mode : LossyBits/(Pixel*Frame) : 0.124Stream size : 166 MiB (87%)Writing library : XviD 73

AudioID : 1Format : MPEG AudioFormat version : Version 1Format profile : Layer 3Codec ID : 55Codec ID/Hint : MP3Duration : 25 min 59 sBit rate mode : ConstantBit rate : 128 kb/sChannel(s) : 1 channelSampling rate : 48.0 kHzCompression mode : LossyStream size : 23.8 MiB (12%)Alignment : Split accross interleavesInterleave, duration : 40 ms (1.00 video frame)Interleave, preload duratio : 500 ms
Внимание! Раздача ведётся путём добавления новых выпусков; при каждом добавлении создаётся новый торрент. Чтобы начать докачку нового выпуска, пользователям необходимо сделать следующее:
(1) остановить скачивание,
(2) удалить старый торрент у себя из клиента (старые серии удалять не надо),
(3) скачать новый торрент и запустить его у себя в клиенте вместо старого, при этом указать клиенту путь в старую папку куда и должно происходить скачивание новых выпусков.

Ваш клиент при этом должен произвести хеширование (проверку) старой папки (если не производит сам - помогите ему сделать это). В результате он будет докачивать только те выпуски, которых у Вас ещё нет. Старые выпуски при этом не удаляются, а продолжают раздаваться!

Eсли Вы уже удалили старые выпуски, то предотвратить их повторную закачку можно, сняв галочки в соответствующих местах при запуске нового торрента. По возможности, желательно не удалять старые выпуски как можно дольше, чтобы релизёр не только продолжал раздавать старые выпуски, но и смог сконцентрироваться на новых.


Трекер:  [ 06-Июл-2018 00:42 ]

  

Скачать .torrent

Размер .torrent файла 16 KB


Размер: 770 MB
Хэш (hash) релиза: d54f21163a7481c83a8e09c52a61adae61fffbb2
Подписка на обновления:

Торренты, похожие на Новости BBC на Дожде BBC News скачать торрент

Форум Название Автор Размер S L Добавлен
Документальные фильмы и телепередачи ·%· Новости BBC на Дожде / BBC News (Май 2018) [2018, информационная программа, SATRip] 22 выпуска Galfimbul 44288887244.12 GB 0 0 1529619277

01:14

22-Июн-18

Документальные фильмы и телепередачи ·%· Новости BBC на Дожде / BBC News (Июнь 2018) [2018, информационная программа, SATRip] 14 выпусков Galfimbul 28150626682.62 GB 0 0 1529619170

01:12

22-Июн-18

Документальные фильмы и телепередачи ·· Новости BBC на Дожде / BBC News (Апрель 2018) [2018, информационная программа, SATRip] 6 выпусков Galfimbul 12063253981.12 GB 0 0 1523367765

16:42

10-Апр-18

Документальные фильмы и телепередачи ·· Новости BBC на Дожде / BBC News (Март 2018) [2018, информационная программа, SATRip] 12 выпусков Galfimbul 24128037502.25 GB 0 0 1521265328

08:42

17-Мар-18

Документальные фильмы и телепередачи ·· Новости BBC на Дожде / BBC News (Февраль 2018 года) [2018, информационная программа, SATRip] 2 выпуска Galfimbul 402250210384 MB 0 0 1517651111

12:45

3-Фев-18

Документальные фильмы и телепередачи ·· Новости BBC на Дожде / BBC News (январь 2018 года) [2018, информационная программа, SATRip] 5 выпусков Galfimbul 999030062953 MB 0 0 1516052851

00:47

16-Янв-18

Документальные фильмы и телепередачи ·· Новости BBC на Дожде / BBC News (декабрь 2017 года) [2017, информационная программа, SATRip] 16 выпусков Galfimbul 32183856403 GB 0 0 1513975456

23:44

22-Дек-17

Документальные фильмы и телепередачи ·· Новости BBC на Дожде / BBC News (октябрь 2017 года) [2017, информационная программа, SATRip] 7 выпусков Galfimbul 13981044441.3 GB 0 0 1511741640

03:14

27-Ноя-17

Документальные фильмы и телепередачи ·· Новости BBC на Дожде / BBC News (ноябрь 2017 года) [2017, информационная программа, SATRip] 8 выпусков Galfimbul 16059500241.5 GB 0 0 1510379199

08:46

11-Ноя-17

Еще никто не оставлял запись к записи скачать торрент Новости BBC на Дожде BBC News . Будь первым!

!Обратная связь