Suite et Télécharger... | SUB Terrace House Boys x Girls Next Door 33 minutes ago EP 83 | Interior Therapy with Jeff Lewis

Скачать через торрент Настоящее время. Июль 2018 Фильм бесплатно в хорошем качестве torrent

Скачивайте на UnionPeer.org фильмы через торрент без регистрации. Новинки кино в хорошем качестве через торрент. На UnionPeer.org можно скачать через торрент фильмы 2014 и 2015 годов. Самые новые фильмы.

Скачать торрент Настоящее время. Июль 2018 бесплатно через .torrent фильм мультфильм сериал

Статистика раздачи
Размер:  707 MB   |    Зарегистрирован:  12 дней   |    .torrent скачан:  29 раз   |   
Раздают:  1  
   
загрузка...
 
Автор Сообщение

Galfimbul

avatar Galfimbul


Настоящее время. Июль 2018

Дата/Год выпуска: 2018
Страна: Чехия
Жанр: информационная программа, ток-шоу
Продолжительность: 4x24 мин.
Перевод: Не требуется
Русские субтитры: нет

Оригинальная аудиодорожка: русский
Ведущие: Ксения Соколянская и Кристина Суворина
Телеканал: Спутниковый телеканал "Настоящее время" (Current Time TV) SDОписание: "Настоящее время" – это международный медиапроект о темах и событиях, волнующих людей. Мы предоставляем объективную, точную и беспристрастную информацию, основанную на фактах. Даем возможность высказаться всем сторонам и обращаем особое внимание на темы, которые обходят стороной официальные СМИ. Cтремимся предлагать полный спектр мнений и комментариев по спорным вопросам.
Сэмпл: http://www.sendspace.com/file/vxcqwm

качество: SATRip
формат: AVI
Видео: Xvid 720x400 (16:9) ~896kbps 25fps
Аудио: MP3 128kbps 48kHz 1ch
1. 2 июля 2018 года.
2. 3 июля 2018 года.
3. 4 июля 2018 года.
4. 5 июля 2018 года.
GeneralComplete name : F:\Мои раздачи\Новости\2018\Настоящее время\Настоящее время. Июль 2018\[2018-07-02 19-00] Настоящее время.aviFormat : AVIFormat/Info : Audio Video InterleaveFile size : 177 MiBDuration : 23 min 54 sOverall bit rate : 1 033 kb/s

VideoID : 0Format : MPEG-4 VisualFormat profile : Advanced [email protected] settings, BVOP : 1Format settings, QPel : NoFormat settings, GMC : No warppointsFormat settings, Matrix : Default (H.263)Codec ID : XVIDCodec ID/Hint : XviDDuration : 23 min 54 sBit rate : 895 kb/sWidth : 720 pixelsHeight : 400 pixelsDisplay aspect ratio : 16:9Frame rate : 25.000 FPSColor space : YUVChroma subsampling : 4:2:0Bit depth : 8 bitsScan type : ProgressiveCompression mode : LossyBits/(Pixel*Frame) : 0.124Stream size : 153 MiB (87%)Writing library : XviD 73

AudioID : 1Format : MPEG AudioFormat version : Version 1Format profile : Layer 3Codec ID : 55Codec ID/Hint : MP3Duration : 23 min 54 sBit rate mode : ConstantBit rate : 128 kb/sChannel(s) : 1 channelSampling rate : 48.0 kHzCompression mode : LossyStream size : 21.9 MiB (12%)Alignment : Split accross interleavesInterleave, duration : 40 ms (1.00 video frame)Interleave, preload duratio : 500 ms
Внимание! Раздача ведётся путём добавления новых выпусков; при каждом добавлении создаётся новый торрент. Чтобы начать докачку нового выпуска, пользователям необходимо сделать следующее:
(1) остановить скачивание,
(2) удалить старый торрент у себя из клиента (старые серии удалять не надо),
(3) скачать новый торрент и запустить его у себя в клиенте вместо старого, при этом указать клиенту путь в старую папку куда и должно происходить скачивание новых выпусков.

Ваш клиент при этом должен произвести хеширование (проверку) старой папки (если не производит сам - помогите ему сделать это). В результате он будет докачивать только те выпуски, которых у Вас ещё нет. Старые выпуски при этом не удаляются, а продолжают раздаваться!

Eсли Вы уже удалили старые выпуски, то предотвратить их повторную закачку можно, сняв галочки в соответствующих местах при запуске нового торрента. По возможности, желательно не удалять старые выпуски как можно дольше, чтобы релизёр не только продолжал раздавать старые выпуски, но и смог сконцентрироваться на новых.


Трекер:  [ 06-Июл-2018 00:42 ]

  

Скачать .torrent

Размер .torrent файла 14 KB


Размер: 707 MB
Хэш (hash) релиза: cb83d6418affec012ca5466b8b8a5450904688a1
Подписка на обновления:

Еще никто не оставлял запись к записи скачать торрент Настоящее время. Июль 2018 . Будь первым!

!Обратная связь