First Class 2 | Peace (2016) | Joe Rogan: Triggered (2016)

Скачать через торрент Сегодня. Июль 2018 Фильм бесплатно в хорошем качестве torrent

Скачивайте на UnionPeer.org фильмы через торрент без регистрации. Новинки кино в хорошем качестве через торрент. На UnionPeer.org можно скачать через торрент фильмы 2014 и 2015 годов. Самые новые фильмы.

Скачать торрент Сегодня. Июль 2018 бесплатно через .torrent фильм мультфильм сериал

Статистика раздачи
Размер:  1.78 GB   |    Зарегистрирован:  12 дней   |    .torrent скачан:  27 раз   |   
Раздают:  1  
   
загрузка...
 
Автор Сообщение

Galfimbul

avatar Galfimbul


Сегодня. Июль 2018

Дата/Год выпуска: 2018
Страна: Украина
Жанр: информационная программа
Продолжительность: 5x45 мин.
Перевод: Не требуется
Русские субтитры: нет

Оригинальная аудиодорожка: русский
Ведущие: Елена Кот, Анна Панова и Олег Панюта
Телеканал: канал "Украина"Описание: 14 февраля 2017 года «Медиа Группа Украина» запустила единую масштабную новостную платформу - «Сегодня». Телевидение, пресса, диджитал – все эти каналы коммуникации теперь объединены в общий информационный бренд. В результате синергии и активного взаимодействия между информационным вещанием телеканала «Украина», сайтом Сегодня.ua и газетой «Сегодня» осуществляется максимальное информирование аудитории 24 часа в сутки, 7 дней в неделю под единым брендом - «Сегодня». Ключевой целью бренда «Сегодня» является удовлетворение потребностей широкой аудитории в информации при соблюдении основных ценностей, которые остаются неизменными - баланс мнений, достоверность, общественные интересы, незаангажированность и объективность.

Доп. информация: Программа на русском языке, но украинская речь присутствует. Время в списке выпусков указано киевское.
Сэмпл: http://www.sendspace.com/file/6jbmq1

качество: SATRip
формат: AVI
Видео: Xvid 720x400 (16:9) ~896kbps 25fps
Аудио: MP3 128kbps 48kHz 1ch
1. 1 июля 2018 года (19:00). События недели.
2. 2 июля 2018 года (19:00).
3. 3 июля 2018 года (19:00).
4. 4 июля 2018 года (19:00).
5. 5 июля 2018 года (19:00).
GeneralComplete name : F:\Мои раздачи\Новости\2018\Сегодня\Сегодня. Июль 2018\[2018-07-01 19-00] События недели.aviFormat : AVIFormat/Info : Audio Video InterleaveFile size : 359 MiBDuration : 48 min 34 sOverall bit rate : 1 033 kb/s

VideoID : 0Format : MPEG-4 VisualFormat profile : Advanced [email protected] settings, BVOP : 2Format settings, QPel : NoFormat settings, GMC : No warppointsFormat settings, Matrix : Default (H.263)Codec ID : XVIDCodec ID/Hint : XviDDuration : 48 min 34 sBit rate : 895 kb/sWidth : 720 pixelsHeight : 400 pixelsDisplay aspect ratio : 16:9Frame rate : 25.000 FPSColor space : YUVChroma subsampling : 4:2:0Bit depth : 8 bitsScan type : ProgressiveCompression mode : LossyBits/(Pixel*Frame) : 0.124Stream size : 311 MiB (87%)Writing library : XviD 73

AudioID : 1Format : MPEG AudioFormat version : Version 1Format profile : Layer 3Codec ID : 55Codec ID/Hint : MP3Duration : 48 min 34 sBit rate mode : ConstantBit rate : 128 kb/sChannel(s) : 1 channelSampling rate : 48.0 kHzCompression mode : LossyStream size : 44.5 MiB (12%)Alignment : Split accross interleavesInterleave, duration : 40 ms (1.00 video frame)Interleave, preload duratio : 500 ms
Внимание! Раздача ведётся путём добавления новых выпусков; при каждом добавлении создаётся новый торрент. Чтобы начать докачку нового выпуска, пользователям необходимо сделать следующее:
(1) остановить скачивание,
(2) удалить старый торрент у себя из клиента (старые серии удалять не надо),
(3) скачать новый торрент и запустить его у себя в клиенте вместо старого, при этом указать клиенту путь в старую папку куда и должно происходить скачивание новых выпусков.

Ваш клиент при этом должен произвести хеширование (проверку) старой папки (если не производит сам - помогите ему сделать это). В результате он будет докачивать только те выпуски, которых у Вас ещё нет. Старые выпуски при этом не удаляются, а продолжают раздаваться!

Eсли Вы уже удалили старые выпуски, то предотвратить их повторную закачку можно, сняв галочки в соответствующих местах при запуске нового торрента. По возможности, желательно не удалять старые выпуски как можно дольше, чтобы релизёр не только продолжал раздавать старые выпуски, но и смог сконцентрироваться на новых.


Трекер:  [ 06-Июл-2018 00:42 ]

  

Скачать .torrent

Размер .torrent файла 18 KB


Размер: 1.78 GB
Хэш (hash) релиза: 9ab7adbab28f505acd7190c85a96639a97a4946b
Подписка на обновления:

Еще никто не оставлял запись к записи скачать торрент Сегодня. Июль 2018 . Будь первым!

!Обратная связь