Cinderella Girls Gekijou ... | Total Genial | Télécharger Part 5

Скачать через торрент Вечернее шоу "Здесь и сейчас". Выпуски за июль Фильм бесплатно в хорошем качестве torrent

Скачивайте на UnionPeer.org фильмы через торрент без регистрации. Новинки кино в хорошем качестве через торрент. На UnionPeer.org можно скачать через торрент фильмы 2014 и 2015 годов. Самые новые фильмы.

Скачать торрент Вечернее шоу "Здесь и сейчас". Выпуски за июль бесплатно через .torrent фильм мультфильм сериал

Статистика раздачи
Размер:  1.83 GB   |    Зарегистрирован:  17 дней   |    .torrent скачан:  26 раз   |   
Раздают:  1  
   
загрузка...
 
Автор Сообщение

Galfimbul

avatar Galfimbul


Вечернее шоу "Здесь и сейчас"
за июль 2018 года

5 июля в 22:53 добавлен выпуск за 5 июля,
перекачайте торрент-файл, пожалуйста
Год выпуска: 2018
Страна: Россия
Жанр: информационная программа, ток-шоу
Ведущие: Анна Монгайт, Павел Лобков, Максим Товкайло, Антон Желнов, Татьяна Арно, Михаил Фишман
Язык: русский
Описание:
Главное новостное шоу дня, которое было запущено на самом старте телеканала. За прошедшее время было опробовано множество форматов и вариантов итогового новостного шоу, но главная особенность осталась прежней. Мы отбираем главные новости за день и приглашаем экспертов в студию, с которыми обсуждаем все, что произошло, и каковы могут быть последствия.
Выход в эфир: На телеканале "Дождь" с понедельника по пятницу в 20.00.
Доп. информация: Время в списке выпусков указано московское.
1. 1 июля 2018 года (20:00). Прямо сейчас. Специальный выпуск.
2. 2 июля 2018 года (20:00).
3. 3 июля 2018 года (20:00).
4. 4 июля 2018 года (20:00).
5. 5 июля 2018 года (20:00).

Качество: SATRip
Формат: AVI
Видео кодек: XviD _ Аудио кодек: MP3
Видео: Xvid 720x400 (16:9) ~896kbps 25fps
Аудио: MP3 128kbps 48kHz 1ch
GeneralComplete name : F:\Мои раздачи\Новости\2018\Здесь и сейчас\Здесь и сейчас. Июль 2018\[2018-07-01 15-00] Прямо сейчас.aviFormat : AVIFormat/Info : Audio Video InterleaveFile size : 379 MiBDuration : 51 min 21 sOverall bit rate : 1 033 kb/s

VideoID : 0Format : MPEG-4 VisualFormat profile : Advanced [email protected] settings, BVOP : 2Format settings, QPel : NoFormat settings, GMC : No warppointsFormat settings, Matrix : Default (H.263)Codec ID : XVIDCodec ID/Hint : XviDDuration : 51 min 21 sBit rate : 895 kb/sWidth : 720 pixelsHeight : 400 pixelsDisplay aspect ratio : 16:9Frame rate : 25.000 FPSColor space : YUVChroma subsampling : 4:2:0Bit depth : 8 bitsScan type : ProgressiveCompression mode : LossyBits/(Pixel*Frame) : 0.124Stream size : 329 MiB (87%)Writing library : XviD 73

AudioID : 1Format : MPEG AudioFormat version : Version 1Format profile : Layer 3Codec ID : 55Codec ID/Hint : MP3Duration : 51 min 21 sBit rate mode : ConstantBit rate : 128 kb/sChannel(s) : 1 channelSampling rate : 48.0 kHzCompression mode : LossyStream size : 47.0 MiB (12%)Alignment : Split accross interleavesInterleave, duration : 40 ms (1.00 video frame)Interleave, preload duratio : 500 ms
Внимание! Раздача ведётся путём добавления новых выпусков; при каждом добавлении создаётся новый торрент. Чтобы начать докачку нового выпуска, пользователям необходимо сделать следующее:
(1) остановить скачивание,
(2) удалить старый торрент у себя из клиента (старые серии удалять не надо),
(3) скачать новый торрент и запустить его у себя в клиенте вместо старого, при этом указать клиенту путь в старую папку куда и должно происходить скачивание новых выпусков.

Ваш клиент при этом должен произвести хеширование (проверку) старой папки (если не производит сам - помогите ему сделать это). В результате он будет докачивать только те выпуски, которых у Вас ещё нет. Старые выпуски при этом не удаляются, а продолжают раздаваться!

Eсли Вы уже удалили старые выпуски, то предотвратить их повторную закачку можно, сняв галочки в соответствующих местах при запуске нового торрента. По возможности, желательно не удалять старые выпуски как можно дольше, чтобы релизёр не только продолжал раздавать старые выпуски, но и смог сконцентрироваться на новых.


Трекер:  [ 06-Июл-2018 00:42 ]

  

Скачать .torrent

Размер .torrent файла 19 KB


Размер: 1.83 GB
Хэш (hash) релиза: 2225e3e9cdc0c0b767669ddd44d9e7203f9706e4
Подписка на обновления:

Еще никто не оставлял запись к записи скачать торрент Вечернее шоу "Здесь и сейчас". Выпуски за июль . Будь первым!

!Обратная связь