Legújabb magyar nyelvű | Season 7 Episode 27 Kandi's Ski Trip: Trip Down Mending Lane | Unduh APK

Скачать через торрент Время. Июль 2018 Zaman Фильм бесплатно в хорошем качестве torrent

Скачивайте на UnionPeer.org фильмы через торрент без регистрации. Новинки кино в хорошем качестве через торрент. На UnionPeer.org можно скачать через торрент фильмы 2014 и 2015 годов. Самые новые фильмы.

Скачать торрент Время. Июль 2018 Zaman бесплатно через .torrent фильм мультфильм сериал

Статистика раздачи
Размер:  676 MB   |    Зарегистрирован:  13 дней   |    .torrent скачан:  25 раз   |   
Раздают:  1  
   
загрузка...
 
Автор Сообщение

Galfimbul

avatar Galfimbul


Время. Июль 2018 / Zaman

Дата/Год выпуска: 2018
Страна: Украина
Жанр: информационная программа
Продолжительность: 4x15 мин.
Перевод: Не требуется
Русские субтитры: нет

Оригинальная аудиодорожка: русский
Ведущие: Эльдар Куртсеитов, София Абляева, Эскендер Меметов
Телеканал: ATRОписание: Важные события, происходящие в Крыму, новости Украины и мира в информационной программе "Zaman". Актуальные темы "Zaman" будут интересны как жителю полуострова, так и целевой аудитории, смотрящей канал в Интернете. "Zaman" активно использует материалы новых медиа: фотографии и видео из блогов и социальных сетей, сотрудничает как с профессиональными журналистами, так и с аматорами в области фото и видео. "Zaman" выходит 6 раз в сутки на трех языках - крымскотатарском, русском и украинском. Наиболее важные события полуострова попадают в итоговую программу "Бу афта" ("Итоговый выпуск новостей").

Доп. информация: "Zaman" переводится на русский язык как "Время". Программа на русском языке, но украинская речь присутствует. Время в списке выпусков указано киевское.
Сэмпл: http://www.sendspace.com/file/w8pudb

качество: SATRip
формат: AVI
Видео: Xvid 720x400 (16:9) ~896kbps 25fps
Аудио: MP3 128kbps 48kHz 1ch
1. 2 июля 2018 года (22:00).
2. 3 июля 2018 года (22:00).
3. 4 июля 2018 года (22:00).
4. 5 июля 2018 года (22:00).
GeneralComplete name : F:\Мои раздачи\Новости\2018\Zaman\Zaman. Июль 2018\[2018-07-02 22-00] Zaman [Час]. ATR.aviFormat : AVIFormat/Info : Audio Video InterleaveFile size : 195 MiBDuration : 26 min 26 sOverall bit rate : 1 033 kb/s

VideoID : 0Format : MPEG-4 VisualFormat profile : Advanced [email protected] settings, BVOP : 2Format settings, QPel : NoFormat settings, GMC : No warppointsFormat settings, Matrix : Default (H.263)Codec ID : XVIDCodec ID/Hint : XviDDuration : 26 min 26 sBit rate : 895 kb/sWidth : 720 pixelsHeight : 400 pixelsDisplay aspect ratio : 16:9Frame rate : 25.000 FPSColor space : YUVChroma subsampling : 4:2:0Bit depth : 8 bitsScan type : ProgressiveCompression mode : LossyBits/(Pixel*Frame) : 0.124Stream size : 169 MiB (87%)Writing library : XviD 73

AudioID : 1Format : MPEG AudioFormat version : Version 1Format profile : Layer 3Codec ID : 55Codec ID/Hint : MP3Duration : 26 min 26 sBit rate mode : ConstantBit rate : 128 kb/sChannel(s) : 1 channelSampling rate : 48.0 kHzCompression mode : LossyStream size : 24.2 MiB (12%)Alignment : Split accross interleavesInterleave, duration : 40 ms (1.00 video frame)Interleave, preload duratio : 500 ms
Внимание! Раздача ведётся путём добавления новых выпусков; при каждом добавлении создаётся новый торрент. Чтобы начать докачку нового выпуска, пользователям необходимо сделать следующее:
(1) остановить скачивание,
(2) удалить старый торрент у себя из клиента (старые серии удалять не надо),
(3) скачать новый торрент и запустить его у себя в клиенте вместо старого, при этом указать клиенту путь в старую папку куда и должно происходить скачивание новых выпусков.

Ваш клиент при этом должен произвести хеширование (проверку) старой папки (если не производит сам - помогите ему сделать это). В результате он будет докачивать только те выпуски, которых у Вас ещё нет. Старые выпуски при этом не удаляются, а продолжают раздаваться!

Eсли Вы уже удалили старые выпуски, то предотвратить их повторную закачку можно, сняв галочки в соответствующих местах при запуске нового торрента. По возможности, желательно не удалять старые выпуски как можно дольше, чтобы релизёр не только продолжал раздавать старые выпуски, но и смог сконцентрироваться на новых.


Трекер:  [ 06-Июл-2018 00:42 ]

  

Скачать .torrent

Размер .torrent файла 14 KB


Размер: 676 MB
Хэш (hash) релиза: 40b2fea30eba00b0a81bde1c5dacb134ccdbeb2b
Подписка на обновления:

Еще никто не оставлял запись к записи скачать торрент Время. Июль 2018 Zaman . Будь первым!

!Обратная связь