1 de julho de 2017 | Dr. Klein | Let's Just Stop Asking Women If They're Pregnant, OK?

Скачать через торрент Убийства в узком кругу. Секреты работы съемочной группы Les petits meurtres, secrets de tournage Фильм бесплатно в хорошем качестве torrent

Скачивайте на UnionPeer.org фильмы через торрент без регистрации. Новинки кино в хорошем качестве через торрент. На UnionPeer.org можно скачать через торрент фильмы 2014 и 2015 годов. Самые новые фильмы.

Скачать торрент Убийства в узком кругу. Секреты работы съемочной группы Les petits meurtres, secrets de tournage бесплатно через .torrent фильм мультфильм сериал

Статистика раздачи
Размер:  1.98 GB   |    Зарегистрирован:  12 дней   |    .torrent скачан:  23 раза   |   
Раздают:  1  
   
загрузка...
 
Автор Сообщение

Galfimbul

avatar Galfimbul


Убийства в узком кругу. Секреты работы съемочной группы
Les petits meurtres, secrets de tournage
Дата/Год выпуска: 2017
Страна: Франция
Жанр: документальный, кинематограф
Продолжительность: 01:25:24
Перевод: Субтитры (русский перевод И.Рыбкиной, ECLAIR)
Русские субтитры: есть

Формат субтитров: prerendered (IDX+SUB), softsub (SRT)
Доп. информация о субтитрах: русские, румынские - (IDX+SUB); английские, французские - (SRT)
Оригинальная аудиодорожка: французский

Режиссер: Бертран Мули / Bertrand Mouly, Арно Перрон / Arnaud Perron

Телеканал: TV5MONDE Europe. Из-за грозы имеется рассинхрон звука с 18 по 25 мин.

Описание: Вы поклонник сериала "Убийства в семейном кругу по произведениям Агаты Кристи" и мечтаете узнать все его секреты? Бландин Беллавуа, исполняющая роль журналистки Алис Авриль, проведет вас туда, куда вход посторонним запрещен: на съемочную площадку. Следуйте за ней!

Доп. информация: Hot Bird (13.0°E) DVB-S


Качество видео: DVB
Формат видео: MKV
Видео: MPEG Video 2, [email protected] (16:9), 25 fps, ~3055 kbps avg, 0.295 bit/pixel
Аудио: MPEG Audio 2, 2 ch, 48 kHz, 192 kbps - французский
GeneralUnique ID : 253286161582255946829820005296573064440 (0xBE8D23EB4AAF9E94AFA03AE7C94124F8)Complete name : [apreder]Les_petits_meurtres_secrets_de_tournage(2017)DVB.mkvFormat : MatroskaFormat version : Version 2File size : 1.98 GiBDuration : 1 h 25 minOverall bit rate mode : VariableOverall bit rate : 3 313 kb/sMovie name : Les petits meurtres, secrets de tournageReleased date : 2017-00-00Encoded date : UTC 2018-06-30 18:49:02Writing application : mkvmerge v24.0.0 ('Beyond The Pale') 64-bitWriting library : libebml v1.3.6 + libmatroska v1.4.9Cover : YesAttachments : cover.jpg / small_cover.jpgACTOR : Blandine Bellavoir, Samuel Labarthe, Elodie FrenckDIRECTOR : Bertrand Mouly, Arnaud PerronGENRE : DocumentaryKEYWORDS : rutracker.orgLAW_RATING : 12+

VideoID : 1Format : MPEG VideoFormat version : Version 2Format profile : [email protected] settings : CustomMatrix / BVOPFormat settings, BVOP : YesFormat settings, Matrix : CustomFormat settings, GOP : M=4, N=12Format settings, picture structure : FrameCodec ID : V_MPEG2Codec ID/Info : MPEG 1 or 2 VideoDuration : 1 h 25 minBit rate mode : VariableBit rate : 3 055 kb/sWidth : 720 pixelsHeight : 576 pixelsDisplay aspect ratio : 16:9Frame rate mode : ConstantFrame rate : 25.000 FPSStandard : PALColor space : YUVChroma subsampling : 4:2:0Bit depth : 8 bitsScan type : InterlacedScan order : Top Field FirstCompression mode : LossyBits/(Pixel*Frame) : 0.295Time code of first frame : 00:00:00:00Time code source : Group of pictures headerGOP, Open/Closed : OpenGOP, Open/Closed of first frame : ClosedStream size : 1.82 GiB (92%)Default : YesForced : No

AudioID : 2Format : MPEG AudioFormat version : Version 1Format profile : Layer 2Codec ID : A_MPEG/L2Codec ID/Hint : MP2Duration : 1 h 25 minBit rate mode : ConstantBit rate : 192 kb/sChannel(s) : 2 channelsSampling rate : 48.0 kHzCompression mode : LossyStream size : 117 MiB (6%)Language : FrenchDefault : YesForced : No

Text #1ID : 3Format : VobSubCodec ID : S_VOBSUBCodec ID/Info : Picture based subtitle format used on DVDsLanguage : RussianDefault : NoForced : No

Text #2ID : 4Format : UTF-8Codec ID : S_TEXT/UTF8Codec ID/Info : UTF-8 Plain TextLanguage : EnglishDefault : NoForced : No

Text #3ID : 5Format : UTF-8Codec ID : S_TEXT/UTF8Codec ID/Info : UTF-8 Plain TextLanguage : FrenchDefault : NoForced : No

Text #4ID : 6Format : VobSubCodec ID : S_VOBSUBCodec ID/Info : Picture based subtitle format used on DVDsLanguage : RomanianDefault : NoForced : No


<div class="sp-wrap">
<div class="sp-head folded">Резервные скриншоты</div>
<div class="sp-body">

</div>
</div>
[4'272]

Трекер:  [ 06-Июл-2018 00:36 ]

  

Скачать .torrent

Размер .torrent файла 20 KB


Размер: 1.98 GB
Хэш (hash) релиза: e6f66cade836c93cde6d2b0b2a1cc9a4c302b524
Подписка на обновления:

Еще никто не оставлял запись к записи скачать торрент Убийства в узком кругу. Секреты работы съемочной группы Les petits meurtres, secrets de tournage . Будь первым!

!Обратная связь