Unusually Thicke | June 6, 2015 | [PC] DRAGON BALL FIGHTERZ (V1.10) [GOOGLEDRIVE][OPENLOAD][FILECONDO]

Скачать через торрент [ATV3] Первому игроку приготовиться Ready Player One бесплатно русская версия torrent активатор

Статистика раздачи
Размер:  9.14 GB   |    Зарегистрирован:  15 дней   |    .torrent скачан:  33 раза   |   
Раздают:  1  
   
загрузка...
 
Автор Сообщение

Galfimbul

avatar Galfimbul


Первому игроку приготовиться / Ready Player One
«Загрузи новую реальность»

7.508 / 10 7.70 / 10
Год выпуска: 2018
Страна: США
Жанр: Фантастика, боевик, приключения
Продолжительность: 02:19:56

Перевод: Дублированный (iTunes)
Оригинальная аудиодорожка: Есть
Cубтитры: Русские форсированные, Русские, Английские
Режиссёр: Стивен Спилберг
Сценарий: Эрнест Клайн, Зак Пенн
Продюсер: Дональд Де Лайн, Дэн Фара, Кристи Макоско Кригер
Оператор: Януш Камински
Композитор: Алан Сильвестри
Художник: Адам Штокхаузен, Гай Брэдли, Гэвин Фитч
Монтаж: Сара Брошар, Майкл Кан
В ролях: Тай Шеридан, Оливия Кук, Бен Мендельсон, Лина Уэйте, ТиДжей Миллер, Саймон Пегг, Марк Райлэнс, Филип Чжао, Уин Морисаки, Ханна Джон-Кэймен

Сборы в США: $136 975 123
Сборы в мире: + $445 000 000 = $581 975 123
Сборы в России: $11 837 806

Мировая премьера: 11 марта 2018
Премьера (РФ): 29 марта 2018, «Каро-Премьер»

Цифровой релиз: 4 июля 2018, «Warner Bros.»

Описание: Действие фильма происходит в 2045 году, мир погружается в хаос и находится на грани коллапса. Люди ищут спасения в игре OASIS — огромной вселенной виртуальной реальности. Ее создатель, гениальный и эксцентричный Джеймс Холлидэй, оставляет уникальное завещание. Все его колоссальное состояние получит игрок, первым обнаруживший цифровое «пасхальное яйцо», которое миллиардер спрятал где-то на просторах OASISа. Запущенный им квест охватывает весь мир. Совершенно негероический парень по имени Уэйд Уоттс решает принять участие в состязании, с головой бросаясь в головокружительную, искажающую реальность погоню за сокровищами по фантастической вселенной, полной загадок, открытий и опасностей.
Качество исходника: BDRemux (BlueBird)
Качество: BDRip
Тип: HD (1080p)
Контейнер: M4V
Видео: H.264, 1920x800, 2.40:1, 8 000 Kbps, 23.976 (24000/1001) fps

Аудио 1: Русский/Дублированный (iTunes), AAC / 2.0 / 160 Kbps / 48.0 KHz
Аудио 2: Английский/Оригинальная дорожка , AAC / 2.0 / 160 Kbps / 48.0 KHz
Аудио 3: Русский/Дублированный (iTunes), AC-3 / 5.1 / 384 Kbps / 48.0 KHz
Аудио 4: Английский/Оригинальная дорожка , AC-3 / 5.1 / 384 Kbps / 48.0 KHz

Субтитры 1: Русские форсированные
Субтитры 2: Русские полные
Субтитры 3: Английские полные
Sort Name: Ready Player One
XID: Apple:vendor_id:2018-538225
contentID: 1354248992
Copyright: © 2018 Warner Bros. Entertainment Inc., Village Roadshow Films North America Inc., RatPac-Dune Entertainment LLC. and Village Roadshow Films (BVI) Limited
Screenwriters: Эрнест Клайн, Зак Пенн
Producers: Дональд Де Лайн, Дэн Фара, Кристи Макоско Кригер
Director: Стивен Спилберг
Cast: Тай Шеридан, Оливия Кук, Бен Мендельсон, Лина Уэйте, ТиДжей Миллер, Саймон Пегг, Марк Райлэнс, Филип Чжао, Уин Морисаки, Ханна Джон-Кэймен
Studio: Warner Home Video
Rating: 4
Long Description: Действие фильма происходит в 2045 году, мир погружается в хаос и находится на грани коллапса. Люди ищут спасения в игре OASIS — огромной вселенной виртуальной реальности. Ее создатель, гениальный и эксцентричный Джеймс Холлидэй, оставляет уникальное завещание. Все его колоссальное состояние получит игрок, первым обнаруживший цифровое «пасхальное яйцо», которое миллиардер спрятал где-то на просторах OASISа. Запущенный им квест охватывает весь мир. Совершенно негероический парень по имени Уэйд Уоттс решает принять участие в состязании, с головой бросаясь в головокружительную, искажающую реальность погоню за сокровищами по фантастической вселенной, полной загадок, открытий и опасностей.
Description: Действие фильма происходит в 2045 году, мир погружается в хаос и находится на грани коллапса. Люди ищут спасения в игре OASIS — огромной вселенной виртуальной реальности. Ее создатель, гениальный и эксцентричный Джеймс Холлидэй, оставляет уникальное завещание. Все его колоссальное состояние получит игрок, первым обнаруживший цифровое «пасхальное яйцо», которое миллиардер спрятал где-то на просторах OASISа.
Release Date: 2018-03-29T07:00:00Z
Genre: Action & Adventure
Artist: Steven Spielberg
Name: Ready Player One
General
Complete name                            : /Users/imac/HandBrake/Ready Player One (1080p HD).m4v
Format                                   : MPEG-4
Codec ID                                 : M4V  (M4V /M4A /mp42/isom)
File size                                : 9.14 GiB
Duration                                 : 2h 19mn
Overall bit rate mode                    : Variable
Overall bit rate                         : 9 344 Kbps
Movie name                               : Ready Player One
Performer                                : Steven Spielberg
Director                                 : Стивен Спилберг
Actor                                    : Тай Шеридан / Оливия Кук / Бен Мендельсон / Лина Уэйте / ТиДжей Миллер / Саймон Пегг / Марк Райлэнс / Филип Чжао / Уин Морисаки / Ханна Джон-Кэймен
Screenplay by                            : Эрнест Клайн / Зак Пенн
Producer                                 : Дональд Де Лайн / Дэн Фара / Кристи Макоско Кригер
Production studio                        : Warner Home Video
Genre                                    : Action & Adventure
ContentType                              : Short Film
Description                              : Действие фильма происходит в 2045 году, мир погружается в хаос и находится на грани коллапса. Люди ищут спасения в игре OASIS — огромной вселенной виртуальной реальности. Ее создатель, гениальный и эксцентричный Джеймс Холлидэй, оставляет уникальное завещание. Все его колоссальное состояние получит игрок, первым обнаруживший цифровое «пасхальное яйцо», которое миллиардер спрятал где-то на просторах OASISа.
Recorded date                            : UTC 2018-03-29 07:00:00
Encoded date                             : UTC 2018-07-05 09:28:44
Tagged date                              : UTC 2018-07-05 09:32:32
Copyright                                : © 2018 Warner Bros. Entertainment Inc., Village Roadshow Films North America Inc., RatPac-Dune Entertainment LLC. and Village Roadshow Films (BVI) Limited
Cover                                    : Yes
Rating                                   : None
Title/Sort                               : Ready Player One
LongDescription                          : Действие фильма происходит в 2045 году, мир погружается в хаос и находится на грани коллапса. Люди ищут спасения в игре OASIS — огромной вселенной виртуальной реальности. Ее создатель, гениальный и эксцентричный Джеймс Холлидэй, оставляет уникальное завещание. Все его колоссальное состояние получит игрок, первым обнаруживший цифровое «пасхальное яйцо», которое миллиардер спрятал где-то на просторах OASISа. Запущенный им квест охватывает весь мир. Совершенно негероический парень по имени Уэйд Уоттс решает принять участие в состязании, с головой бросаясь в головокружительную, искажающую реальность погоню за сокровищами по фантастической вселенной, полной загадок, открытий и опасностей.
AppleStoreCatalogID                      : 1354248992
Vendor                                   : Apple:vendor_id:2018-538225
ContentRating                            : mpaa|PG-13|300|

Video #1
ID                                       : 1
Format                                   : AVC
Format/Info                              : Advanced Video Codec
Format profile                           : [email protected]
Format settings                          : CABAC / 4 Ref Frames
Format settings, CABAC                   : Yes
Format settings, ReFrames                : 4 frames
Codec ID                                 : avc1
Codec ID/Info                            : Advanced Video Coding
Duration                                 : 2h 19mn
Source duration                          : 2h 19mn
Bit rate                                 : 8 000 Kbps
Width                                    : 1 920 pixels
Height                                   : 800 pixels
Display aspect ratio                     : 2.40:1
Frame rate mode                          : Variable
Frame rate                               : 23.976 (24000/1001) fps
Minimum frame rate                       : 23.974 fps
Maximum frame rate                       : 23.981 fps
Color space                              : YUV
Chroma subsampling                       : 4:2:0
Bit depth                                : 8 bits
Scan type                                : Progressive
Bits/(Pixel*Frame)                       : 0.217
Stream size                              : 7.82 GiB (86%)
Source stream size                       : 7.82 GiB (86%)
Title                                    : Main Program
Writing library                          : x264 core 155 r2901 7d0ff22
Encoding settings                        : cabac=1 / ref=4 / deblock=1:-2:-2 / analyse=0x3:0x133 / me=umh / subme=10 / psy=1 / psy_rd=1.00:0.15 / mixed_ref=1 / me_range=32 / chroma_me=1 / trellis=2 / 8x8dct=1 / cqm=0 / deadzone=21,11 / fast_pskip=1 / chroma_qp_offset=-3 / threads=25 / lookahead_threads=6 / sliced_threads=0 / nr=0 / decimate=0 / interlaced=0 / bluray_compat=0 / constrained_intra=0 / bframes=16 / b_pyramid=2 / b_adapt=2 / b_bias=0 / direct=3 / weightb=1 / open_gop=0 / weightp=2 / keyint=240 / keyint_min=24 / scenecut=40 / intra_refresh=0 / rc_lookahead=40 / rc=2pass / mbtree=1 / bitrate=8000 / ratetol=1.0 / qcomp=0.70 / qpmin=0 / qpmax=69 / qpstep=4 / cplxblur=20.0 / qblur=0.5 / ip_ratio=1.40 / aq=1:1.00
Language                                 : English
Encoded date                             : UTC 2018-07-05 09:28:45
Tagged date                              : UTC 2018-07-05 09:29:07
Color range                              : Limited
Color primaries                          : BT.709
Transfer characteristics                 : BT.709
Matrix coefficients                      : BT.709
Menus                                    : 9,10

Video #2
ID                                       : 10
Format                                   : JPEG
Codec ID                                 : jpeg
Duration                                 : 2h 19mn
Bit rate mode                            : Variable
Bit rate                                 : 552 bps
Width                                    : 640 pixels
Height                                   : 266 pixels
Display aspect ratio                     : 2.40:1
Frame rate mode                          : Variable
Frame rate                               : 0.002 fps
Minimum frame rate                       : 0.001 fps
Maximum frame rate                       : 0.003 fps
Color space                              : YUV
Chroma subsampling                       : 4:2:0
Bit depth                                : 8 bits
Compression mode                         : Lossy
Bits/(Pixel*Frame)                       : 1.621
Stream size                              : 471 KiB (0%)
Title                                    : Chapter Images
Language                                 : English
Default                                  : No
Encoded date                             : UTC 2018-07-05 09:29:18
Tagged date                              : UTC 2018-07-05 09:29:19
Menu For                                 : 1
ColorSpace_ICC                           : RGB

Audio #1
ID                                       : 2
Format                                   : AAC
Format/Info                              : Advanced Audio Codec
Format profile                           : LC
Codec ID                                 : mp4a-40-2
Duration                                 : 2h 19mn
Source duration                          : 2h 19mn
Bit rate mode                            : Variable
Bit rate                                 : 157 Kbps
Maximum bit rate                         : 234 Kbps
Channel(s)                               : 2 channels
Channel positions                        : Front: L R
Sampling rate                            : 48.0 KHz
Frame rate                               : 46.875 fps (1024 SPF)
Compression mode                         : Lossy
Stream size                              : 158 MiB (2%)
Source stream size                       : 158 MiB (2%)
Title                                    : Russian Stereo
Language                                 : Russian
Default                                  : Yes
Alternate group                          : 1
Encoded date                             : UTC 2018-07-05 09:28:45
Tagged date                              : UTC 2018-07-05 09:29:12
Fallback From                            : 4
Subtitles                                : 6,7

Audio #2
ID                                       : 3
Format                                   : AAC
Format/Info                              : Advanced Audio Codec
Format profile                           : LC
Codec ID                                 : mp4a-40-2
Duration                                 : 2h 19mn
Source duration                          : 2h 19mn
Bit rate mode                            : Variable
Bit rate                                 : 158 Kbps
Maximum bit rate                         : 258 Kbps
Channel(s)                               : 2 channels
Channel positions                        : Front: L R
Sampling rate                            : 48.0 KHz
Frame rate                               : 46.875 fps (1024 SPF)
Compression mode                         : Lossy
Stream size                              : 158 MiB (2%)
Source stream size                       : 158 MiB (2%)
Title                                    : English Stereo
Language                                 : English
Default                                  : No
Alternate group                          : 1
Encoded date                             : UTC 2018-07-05 09:28:45
Tagged date                              : UTC 2018-07-05 09:29:12
Fallback From                            : 5

Audio #3
ID                                       : 4
Format                                   : AC-3
Format/Info                              : Audio Coding 3
Codec ID                                 : ac-3
Duration                                 : 2h 19mn
Bit rate mode                            : Constant
Bit rate                                 : 384 Kbps
Channel(s)                               : 6 channels
Channel positions                        : Front: L C R, Side: L R, LFE
Sampling rate                            : 48.0 KHz
Frame rate                               : 31.250 fps (1536 SPF)
Bit depth                                : 16 bits
Compression mode                         : Lossy
Stream size                              : 384 MiB (4%)
Title                                    : Russian DD 5.1
Language                                 : Russian
Service kind                             : Complete Main
Default                                  : Inherited From: 2
Alternate group                          : 1
Encoded date                             : UTC 2018-07-05 09:28:45
Tagged date                              : UTC 2018-07-05 09:28:57
Fallback To                              : 2
Subtitles                                : 6,7

Audio #4
ID                                       : 5
Format                                   : AC-3
Format/Info                              : Audio Coding 3
Codec ID                                 : ac-3
Duration                                 : 2h 19mn
Bit rate mode                            : Constant
Bit rate                                 : 640 Kbps
Channel(s)                               : 6 channels
Channel positions                        : Front: L C R, Side: L R, LFE
Sampling rate                            : 48.0 KHz
Frame rate                               : 31.250 fps (1536 SPF)
Bit depth                                : 16 bits
Compression mode                         : Lossy
Stream size                              : 641 MiB (7%)
Title                                    : English DD 5.1
Language                                 : English
Service kind                             : Complete Main
Default                                  : No
Alternate group                          : 1
Encoded date                             : UTC 2018-07-05 09:28:45
Tagged date                              : UTC 2018-07-05 09:28:57
Fallback To                              : 3

Text #1
ID                                       : 6
Format                                   : Timed Text
Muxing mode                              : sbtl
Codec ID                                 : tx3g
Duration                                 : 2h 9mn
Bit rate mode                            : Variable
Bit rate                                 : 2 bps
Stream size                              : 1.58 KiB (0%)
Title                                    : Russian forced
Language                                 : Russian
Default                                  : Yes
Forced                                   : Yes
Alternate group                          : 2
Encoded date                             : UTC 2018-07-05 09:28:45
Tagged date                              : UTC 2018-07-05 09:28:45
Subtitles For                            : 2,4
Full Alternative                         : 7

Text #2
ID                                       : 7
Format                                   : Timed Text
Muxing mode                              : sbtl
Codec ID                                 : tx3g
Duration                                 : 2h 11mn
Bit rate mode                            : Variable
Bit rate                                 : 97 bps
Stream size                              : 93.3 KiB (0%)
Title                                    : Russian full
Language                                 : Russian
Default                                  : No
Forced                                   : No
Alternate group                          : 2
Encoded date                             : UTC 2018-07-05 09:28:45
Tagged date                              : UTC 2018-07-05 09:28:45
Subtitles For                            : 2,4
Forced Alternative                       : 6

Text #3
ID                                       : 8
Format                                   : Timed Text
Muxing mode                              : sbtl
Codec ID                                 : tx3g
Duration                                 : 2h 9mn
Bit rate mode                            : Variable
Bit rate                                 : 66 bps
Stream size                              : 62.6 KiB (0%)
Title                                    : English full
Language                                 : English
Default                                  : No
Forced                                   : No
Alternate group                          : 2
Encoded date                             : UTC 2018-07-05 09:28:45
Tagged date                              : UTC 2018-07-05 09:28:45

Menu #1
00:00:00.000                             : 00:00:00.000
00:10:08.233                             : 00:10:08.233
00:20:18.259                             : 00:20:18.259
00:30:37.627                             : 00:30:37.627
00:40:38.269                             : 00:40:38.269
00:50:08.964                             : 00:50:08.964
01:03:01.778                             : 01:03:01.778
01:11:55.269                             : 01:11:55.269
01:20:14.768                             : 01:20:14.727
01:30:58.328                             : 01:30:58.328
01:43:26.742                             : 01:43:26.742
01:53:02.150                             : 01:53:02.150
02:04:20.161                             : 02:04:20.161
02:09:17.250                             : 02:09:17.249

Menu #2
ID                                       : 9
Codec ID                                 : text
Duration                                 : 2h 19mn
Language                                 : English
Encoded date                             : UTC 2018-07-05 09:29:12
Tagged date                              : UTC 2018-07-05 09:29:12
Bit rate mode                            : CBR
Menu For                                 : 1
00:00:00.000                             : 00:00:00.000
00:10:08.233                             : 00:10:08.233
00:20:18.259                             : 00:20:18.259
00:30:37.627                             : 00:30:37.627
00:40:38.269                             : 00:40:38.269
00:50:08.964                             : 00:50:08.964
01:03:01.778                             : 01:03:01.778
01:11:55.269                             : 01:11:55.269
01:20:14.768                             : 01:20:14.727
01:30:58.328                             : 01:30:58.328
01:43:26.742                             : 01:43:26.742
01:53:02.150                             : 01:53:02.150
02:04:20.161                             : 02:04:20.161
02:09:17.250                             : 02:09:17.249
x264 [info]: frame I:1025  Avg QP:18.50  size:165966
x264 [info]: frame P:59128 Avg QP:21.90  size: 65877
x264 [info]: frame B:141204 Avg QP:22.81  size: 30654
x264 [info]: consecutive B-frames:  7.0%  5.9% 20.8% 19.1% 17.0% 26.7%  1.1%  0.1%  0.2%  0.2%  0.3%  0.0%  0.1%  0.3%  0.1%  0.2%  0.9%
x264 [info]: mb I  I16..4: 19.6% 68.3% 12.1%
x264 [info]: mb P  I16..4:  5.9% 21.1%  1.6%  P16..4: 41.1% 14.3%  8.0%  0.2%  0.1%    skip: 7.8%
x264 [info]: mb B  I16..4:  0.6%  2.5%  0.2%  B16..8: 46.2%  9.0%  2.1%  direct: 7.5%  skip:31.9%  L0:47.8% L1:42.3% BI:10.0%
x264 [info]: 8x8 transform intra:73.7% inter:69.0%
x264 [info]: direct mvs  spatial:98.6% temporal:1.4%
x264 [info]: coded y,uvDC,uvAC intra: 84.5% 83.4% 50.5% inter: 32.3% 36.1% 11.1%
x264 [info]: i16 v,h,dc,p: 10% 15% 24% 51%
x264 [info]: i8 v,h,dc,ddl,ddr,vr,hd,vl,hu:  7%  8%  6% 11% 15% 13% 15% 11% 13%
x264 [info]: i4 v,h,dc,ddl,ddr,vr,hd,vl,hu:  8%  9%  4% 10% 15% 14% 16% 11% 14%
x264 [info]: i8c dc,h,v,p: 43% 24% 18% 15%
x264 [info]: Weighted P-Frames: Y:4.6% UV:2.8%
x264 [info]: ref P L0: 52.5% 13.0% 23.9%  9.4%  1.2%  0.0%
x264 [info]: ref B L0: 87.8%  9.9%  2.3%
x264 [info]: ref B L1: 96.1%  3.9%
x264 [info]: kb/s:7995.72

Релиз подготовлен для просмотра на Apple TV, iPad, iPhone, iPod Touch.
Для просмотра данного релиза на компьютере с ОС Windows рекомендуется использовать VLC media player

Трекер:  [ 05-Июл-2018 13:36 ]

  

Скачать .torrent

Размер .torrent файла 92 KB


Размер: 9.14 GB
Хэш (hash) релиза: d907343244016628534b02881c8c996d0220f178

Торренты, похожие на [ATV3] Первому игроку приготовиться Ready Player One скачать торрент

Форум Название Автор Размер S L Добавлен
Видео (iPhone/iPod Touch/iPad) ·%· [ATV3] Первому игроку приготовиться / Ready Player One (Стивен Спилберг / Steven Spielberg ) [2018, США, Фантастика, боевик, приключения, WEB-DL, HD (1080p)] DUB + Original + sub (rus, eng) Galfimbul 61207329175.7 GB 2 0 1530659178

02:06

4-Июл-18

Еще никто не оставлял запись к записи скачать торрент [ATV3] Первому игроку приготовиться Ready Player One . Будь первым!

!Обратная связь