Fantasy(2273) | Patthama Panthong | Black Panther 2018 ENGLISH

Скачать через торрент Новые приключения Винни Пуха The New Adventures of Winnie the Pooh Фильм бесплатно в хорошем качестве torrent

Скачивайте на UnionPeer.org фильмы через торрент без регистрации. Новинки кино в хорошем качестве через торрент. На UnionPeer.org можно скачать через торрент фильмы 2014 и 2015 годов. Самые новые фильмы.

Скачать торрент Новые приключения Винни Пуха The New Adventures of Winnie the Pooh бесплатно через .torrent фильм мультфильм сериал

Статистика раздачи
Размер:  11.86 GB   |    Зарегистрирован:  12 дней   |    .torrent скачан:  31 раз   |   
Раздают:  1  
   
загрузка...
 
Автор Сообщение

Galfimbul

avatar Galfimbul



Новые приключения Винни Пуха / The New Adventures of Winnie the Pooh
Английское название: The New Adventures of Winnie the Pooh
Русское название: Новые приключения Винни Пуха
Год выпуска: 1988
Страна: США
Жанр: комедия, приключения
Продолжительность: ТВ (50 эп.), ~ 23 минуты
Перевод: Профессиональный (Полное Дублирование) РТР
Субтитры: Нет
Режиссёр: Теренс Харрисон / Terence Harrison

Описание: Кто такой Винни Пух, знают все. Этот мультфильм производства компании Уолта Диснея основан на оригинальных иллюстрациях четырехтомного собрания о Винни Пухе Эрнеста Шепарда. Познакомьтесь с Винни Пухом, каким его видят англоязычные ценители и который, конечно, отличается от русской версии Бориса Заходера.



Релиз от:




Над релизом работали:

tmnt30 ....... Предоставил лицензионные кассеты Видеосервиса
RABOTNIC ....... Предоставил лицензионные кассеты Видеосервиса
ALEKS KV .......Предоставил лицензионные кассеты Видеосервиса, оцифровка, сканы обложек



Доп. Информация:
В релизе представлены оцифровки всех лицензионных кассет выходивших от фирмы "Видеосервис" :
Новые приключения Винни Пуха: Настоящий герой (Имеет Hi-Fi звук)
Новые приключения Винни Пуха: Похитители мёда (Имеет Hi-Fi звук)
Новые приключения Винни Пуха: Разбойник в маске (Имеет Hi-Fi звук)

Оцифровка производилась с компонентных выходов при помощи тюнера Beholder H8. Главным отличием от всех остальных изданий и телетрансляций является совершенно иной локализованный видео ряд: Сэмпл

Качество: VHSRip
Формат видео: MPEG2
Контейнер: MPG
Аудио кодек: AC3
Видео: MPEG2 Video 720x576 (4:3) 25.000fps 15 000 Kbps
Аудио:

русская: Dolby AC3 48000Hz stereo 384Kbps [РТР] {Hi-Fi}
01. Настоящий герой
07. Похитители мёда
08. Пропавшие полоски / Весёлая обезьянка
13. Мед для Кролика / Весёлая охота
14a. Разбойник в маске
15a. Разбитое зеркало
16. Волшебная звезда
Новые приключения Винни Пуха: Настоящий герой
01. Настоящий герой
13b. Весёлая охота
13a. Мед для Кролика


Новые приключения Винни Пуха: Похитители мёда
07. Похитители мёда
08. Пропавшие полоски / Весёлая обезьянка


Новые приключения Винни Пуха: Разбойник в маске
16. Волшебная звезда
14a. Разбойник в маске
15a. Разбитое зеркало
GeneralComplete name : xxxxxxxxxx\[M-KV2501] Новые приключения Винни Пуха [Настоящий герой] [DUB РТР] [VHS Видеосервис] {Hi-Fi}.mpgFormat : MPEG-PSFile size : 3.76 GiBDuration : 43 min 15 sOverall bit rate mode : VariableOverall bit rate : 12.5 Mb/s

VideoID : 224 (0xE0)Format : MPEG VideoFormat version : Version 2Format profile : [email protected] settings : CustomMatrix / BVOPFormat settings, BVOP : YesFormat settings, Matrix : CustomFormat settings, GOP : M=3, N=15Format settings, picture st : FrameDuration : 43 min 15 sBit rate mode : VariableBit rate : 11.8 Mb/sMaximum bit rate : 15.0 Mb/sWidth : 720 pixelsHeight : 576 pixelsDisplay aspect ratio : 4:3Frame rate : 25.000 FPSStandard : PALColor space : YUVChroma subsampling : 4:2:0Bit depth : 8 bitsScan type : InterlacedScan order : Top Field FirstCompression mode : LossyBits/(Pixel*Frame) : 1.141Time code of first frame : 00:00:00:01Time code source : Group of pictures headerGOP, Open/Closed : OpenGOP, Open/Closed of first f : ClosedStream size : 3.57 GiB (95%)

AudioID : 189 (0xBD)-128 (0x80)Format : AC-3Format/Info : Audio Coding 3Muxing mode : DVD-VideoDuration : 43 min 15 sBit rate mode : ConstantBit rate : 384 kb/sChannel(s) : 2 channelsChannel positions : Front: L RSampling rate : 48.0 kHzFrame rate : 31.250 FPS (1536 SPF)Bit depth : 16 bitsCompression mode : LossyDelay relative to video : 6 msStream size : 119 MiB (3%)Service kind : Complete Main
Внимание, данная раздача содержит эксклюзивный контент от M-KV2501 и РГ Мультфильмы. Использовать контент без баннера группы: и указания первоначального источника - ЗАПРЕЩЕНО! Уважайте чужой труд!


Трекер:  [ 05-Июл-2018 02:54 ]

  

Скачать .torrent

Размер .torrent файла 60 KB


Размер: 11.86 GB
Хэш (hash) релиза: 493df395bc36f8298bd1bad5ddbfe859f2345e2e
Подписка на обновления:

Еще никто не оставлял запись к записи скачать торрент Новые приключения Винни Пуха The New Adventures of Winnie the Pooh . Будь первым!

!Обратная связь