Professional and Technical | Miguel Ángel Solá | Adele - Skyfall

Скачать через торрент Первому игроку приготовиться Ready Player One бесплатно русская версия torrent активатор

Статистика раздачи
Размер:  1.65 GB   |    Зарегистрирован:  12 дней   |    .torrent скачан:  29 раз   |   
Раздают:  1  
   
загрузка...
 
Автор Сообщение

Galfimbul

avatar Galfimbul


Первому игроку приготовиться / Ready Player One
«Загрузи новую реальность»

7.508 / 10 7.70 / 10
Год выпуска: 2018
Страна: США
Жанр: Фантастика, боевик, приключения
Продолжительность: 02:19:55

Перевод: Дублированный (iTunes)
Оригинальная аудиодорожка: Есть
Cубтитры: Русские форсированные, Украинские форсированные, Русские, Английские
Режиссёр: Стивен Спилберг
Сценарий: Эрнест Клайн, Зак Пенн
Продюсер: Дональд Де Лайн, Дэн Фара, Кристи Макоско Кригер
Оператор: Януш Камински
Композитор: Алан Сильвестри
Художник: Адам Штокхаузен, Гай Брэдли, Гэвин Фитч
Монтаж: Сара Брошар, Майкл Кан
В ролях: Тай Шеридан, Оливия Кук, Бен Мендельсон, Лина Уэйте, ТиДжей Миллер, Саймон Пегг, Марк Райлэнс, Филип Чжао, Уин Морисаки, Ханна Джон-Кэймен

Сборы в США: $136 975 123
Сборы в мире: + $445 000 000 = $581 975 123
Сборы в России: $11 837 806

Мировая премьера: 11 марта 2018
Премьера (РФ): 29 марта 2018, «Каро-Премьер»

Цифровой релиз: 4 июля 2018, «Warner Bros.»

Описание: Действие фильма происходит в 2045 году, мир погружается в хаос и находится на грани коллапса. Люди ищут спасения в игре OASIS — огромной вселенной виртуальной реальности. Ее создатель, гениальный и эксцентричный Джеймс Холлидэй, оставляет уникальное завещание. Все его колоссальное состояние получит игрок, первым обнаруживший цифровое «пасхальное яйцо», которое миллиардер спрятал где-то на просторах OASISа. Запущенный им квест охватывает весь мир. Совершенно негероический парень по имени Уэйд Уоттс решает принять участие в состязании, с головой бросаясь в головокружительную, искажающую реальность погоню за сокровищами по фантастической вселенной, полной загадок, открытий и опасностей.
Качество исходника: WEB-DL 1080p (BlueBird)
Качество: WEB-DLRip
Тип: SD (480p)
Контейнер: M4V
Видео: H.264, 640x356 анаморф 852х356, 2.40:1, 1 300 Kbps, 23.976 (24000/1001) fps

Аудио 1: Русский/Дублированный (iTunes), AAC / 2.0 / 128 Kbps / 48.0 KHz
Аудио 2: Английский/Оригинальная дорожка , AAC / 2.0 / 128 Kbps / 48.0 KHz
Аудио 3: Украинский/Дублированный (iTunes), AAC / 2.0 / 128 Kbps / 44.1 KHz

Субтитры 1: Русские форсированные
Субтитры 2: Украинские форсированные
Субтитры 3: Русские полные
Субтитры 4: Английские полные
Sort Name: Ready Player One
XID: Apple:vendor_id:2018-538225
contentID: 1354248992
Copyright: © 2018 Warner Bros. Entertainment Inc., Village Roadshow Films North America Inc., RatPac-Dune Entertainment LLC. and Village Roadshow Films (BVI) Limited
Screenwriters: Эрнест Клайн, Зак Пенн
Producers: Дональд Де Лайн, Дэн Фара, Кристи Макоско Кригер
Director: Стивен Спилберг
Cast: Тай Шеридан, Оливия Кук, Бен Мендельсон, Лина Уэйте, ТиДжей Миллер, Саймон Пегг, Марк Райлэнс, Филип Чжао, Уин Морисаки, Ханна Джон-Кэймен
Studio: Warner Home Video
Rating: 4
Long Description: Действие фильма происходит в 2045 году, мир погружается в хаос и находится на грани коллапса. Люди ищут спасения в игре OASIS — огромной вселенной виртуальной реальности. Ее создатель, гениальный и эксцентричный Джеймс Холлидэй, оставляет уникальное завещание. Все его колоссальное состояние получит игрок, первым обнаруживший цифровое «пасхальное яйцо», которое миллиардер спрятал где-то на просторах OASISа. Запущенный им квест охватывает весь мир. Совершенно негероический парень по имени Уэйд Уоттс решает принять участие в состязании, с головой бросаясь в головокружительную, искажающую реальность погоню за сокровищами по фантастической вселенной, полной загадок, открытий и опасностей.
Description: Действие фильма происходит в 2045 году, мир погружается в хаос и находится на грани коллапса. Люди ищут спасения в игре OASIS — огромной вселенной виртуальной реальности. Ее создатель, гениальный и эксцентричный Джеймс Холлидэй, оставляет уникальное завещание. Все его колоссальное состояние получит игрок, первым обнаруживший цифровое «пасхальное яйцо», которое миллиардер спрятал где-то на просторах OASISа.
Release Date: 2018-03-29T07:00:00Z
Genre: Action & Adventure
Artist: Steven Spielberg
Name: Ready Player One
General
Complete name                            : /Users/imac/HandBrake/Ready.Player.One.(480p).(pk).m4v
Format                                   : MPEG-4
Codec ID                                 : M4V  (M4V /M4A /mp42/isom)
File size                                : 1.65 GiB
Duration                                 : 2h 19mn
Overall bit rate mode                    : Variable
Overall bit rate                         : 1 685 Kbps
Movie name                               : Ready Player One
Performer                                : Steven Spielberg
Director                                 : Стивен Спилберг
Actor                                    : Тай Шеридан / Оливия Кук / Бен Мендельсон / Лина Уэйте / ТиДжей Миллер / Саймон Пегг / Марк Райлэнс / Филип Чжао / Уин Морисаки / Ханна Джон-Кэймен
Screenplay by                            : Эрнест Клайн / Зак Пенн
Producer                                 : Дональд Де Лайн / Дэн Фара / Кристи Макоско Кригер
Production studio                        : Warner Home Video
Genre                                    : Action & Adventure
ContentType                              : Short Film
Description                              : Действие фильма происходит в 2045 году, мир погружается в хаос и находится на грани коллапса. Люди ищут спасения в игре OASIS — огромной вселенной виртуальной реальности. Ее создатель, гениальный и эксцентричный Джеймс Холлидэй, оставляет уникальное завещание. Все его колоссальное состояние получит игрок, первым обнаруживший цифровое «пасхальное яйцо», которое миллиардер спрятал где-то на просторах OASISа.
Recorded date                            : UTC 2018-03-29 07:00:00
Encoded date                             : UTC 2018-07-04 12:47:38
Tagged date                              : UTC 2018-07-04 12:51:00
Copyright                                : © 2018 Warner Bros. Entertainment Inc., Village Roadshow Films North America Inc., RatPac-Dune Entertainment LLC. and Village Roadshow Films (BVI) Limited
Cover                                    : Yes
Rating                                   : None
Title/Sort                               : Ready Player One
LongDescription                          : Действие фильма происходит в 2045 году, мир погружается в хаос и находится на грани коллапса. Люди ищут спасения в игре OASIS — огромной вселенной виртуальной реальности. Ее создатель, гениальный и эксцентричный Джеймс Холлидэй, оставляет уникальное завещание. Все его колоссальное состояние получит игрок, первым обнаруживший цифровое «пасхальное яйцо», которое миллиардер спрятал где-то на просторах OASISа. Запущенный им квест охватывает весь мир. Совершенно негероический парень по имени Уэйд Уоттс решает принять участие в состязании, с головой бросаясь в головокружительную, искажающую реальность погоню за сокровищами по фантастической вселенной, полной загадок, открытий и опасностей.
AppleStoreCatalogID                      : 1354248992
Vendor                                   : Apple:vendor_id:2018-538225
ContentRating                            : mpaa|PG-13|300|

Video #1
ID                                       : 1
Format                                   : AVC
Format/Info                              : Advanced Video Codec
Format profile                           : [email protected]
Format settings                          : 2 Ref Frames
Format settings, CABAC                   : No
Format settings, ReFrames                : 2 frames
Codec ID                                 : avc1
Codec ID/Info                            : Advanced Video Coding
Duration                                 : 2h 19mn
Bit rate                                 : 1 300 Kbps
Width                                    : 640 pixels
Height                                   : 356 pixels
Display aspect ratio                     : 2.40:1
Frame rate mode                          : Variable
Frame rate                               : 23.976 (24000/1001) fps
Minimum frame rate                       : 23.974 fps
Maximum frame rate                       : 23.981 fps
Color space                              : YUV
Chroma subsampling                       : 4:2:0
Bit depth                                : 8 bits
Scan type                                : Progressive
Bits/(Pixel*Frame)                       : 0.238
Stream size                              : 1.27 GiB (77%)
Title                                    : Main Program
Writing library                          : x264 core 155 r2901 7d0ff22
Encoding settings                        : cabac=0 / ref=2 / deblock=1:0:0 / analyse=0x1:0x111 / me=umh / subme=6 / psy=1 / psy_rd=1.00:0.00 / mixed_ref=1 / me_range=16 / chroma_me=1 / trellis=0 / 8x8dct=0 / cqm=0 / deadzone=21,11 / fast_pskip=1 / chroma_qp_offset=-2 / threads=11 / lookahead_threads=1 / sliced_threads=0 / nr=0 / decimate=1 / interlaced=0 / bluray_compat=0 / constrained_intra=0 / bframes=0 / weightp=0 / keyint=240 / keyint_min=24 / scenecut=40 / intra_refresh=0 / rc_lookahead=40 / rc=2pass / mbtree=1 / bitrate=1300 / ratetol=1.0 / qcomp=0.60 / qpmin=0 / qpmax=69 / qpstep=4 / cplxblur=20.0 / qblur=0.5 / vbv_maxrate=5000 / vbv_bufsize=5000 / nal_hrd=none / filler=0 / ip_ratio=1.40 / aq=1:1.00
Language                                 : English
Encoded date                             : UTC 2018-07-04 12:47:38
Tagged date                              : UTC 2018-07-04 12:47:46
Color range                              : Limited
Color primaries                          : BT.709
Transfer characteristics                 : BT.709
Matrix coefficients                      : BT.709
Menus                                    : 9,10

Video #2
ID                                       : 10
Format                                   : JPEG
Codec ID                                 : jpeg
Duration                                 : 2h 19mn
Bit rate mode                            : Variable
Bit rate                                 : 556 bps
Width                                    : 640 pixels
Height                                   : 267 pixels
Display aspect ratio                     : 2.40:1
Frame rate mode                          : Variable
Frame rate                               : 0.002 fps
Minimum frame rate                       : 0.001 fps
Maximum frame rate                       : 0.003 fps
Color space                              : YUV
Chroma subsampling                       : 4:2:0
Bit depth                                : 8 bits
Compression mode                         : Lossy
Bits/(Pixel*Frame)                       : 1.627
Stream size                              : 475 KiB (0%)
Title                                    : Chapter Images
Language                                 : English
Default                                  : No
Encoded date                             : UTC 2018-07-04 12:47:53
Tagged date                              : UTC 2018-07-04 12:47:54
Menu For                                 : 1
ColorSpace_ICC                           : RGB

Audio #1
ID                                       : 2
Format                                   : AAC
Format/Info                              : Advanced Audio Codec
Format profile                           : LC
Codec ID                                 : mp4a-40-2
Duration                                 : 2h 19mn
Source duration                          : 2h 19mn
Bit rate mode                            : Variable
Bit rate                                 : 125 Kbps
Maximum bit rate                         : 188 Kbps
Channel(s)                               : 2 channels
Channel positions                        : Front: L R
Sampling rate                            : 48.0 KHz
Frame rate                               : 46.875 fps (1024 SPF)
Compression mode                         : Lossy
Stream size                              : 126 MiB (7%)
Source stream size                       : 126 MiB (7%)
Title                                    : Russian Stereo
Language                                 : Russian
Default                                  : Yes
Alternate group                          : 1
Encoded date                             : UTC 2018-07-04 12:47:38
Tagged date                              : UTC 2018-07-04 12:47:51
Subtitles                                : 5,7

Audio #2
ID                                       : 3
Format                                   : AAC
Format/Info                              : Advanced Audio Codec
Format profile                           : LC
Codec ID                                 : mp4a-40-2
Duration                                 : 2h 19mn
Source duration                          : 2h 19mn
Bit rate mode                            : Variable
Bit rate                                 : 125 Kbps
Maximum bit rate                         : 201 Kbps
Channel(s)                               : 2 channels
Channel positions                        : Front: L R
Sampling rate                            : 48.0 KHz
Frame rate                               : 46.875 fps (1024 SPF)
Compression mode                         : Lossy
Stream size                              : 125 MiB (7%)
Source stream size                       : 125 MiB (7%)
Title                                    : English Stereo
Language                                 : English
Default                                  : No
Alternate group                          : 1
Encoded date                             : UTC 2018-07-04 12:47:38
Tagged date                              : UTC 2018-07-04 12:47:51

Audio #3
ID                                       : 4
Format                                   : AAC
Format/Info                              : Advanced Audio Codec
Format profile                           : LC
Codec ID                                 : mp4a-40-2
Duration                                 : 2h 19mn
Source duration                          : 2h 19mn
Bit rate mode                            : Variable
Bit rate                                 : 126 Kbps
Maximum bit rate                         : 218 Kbps
Channel(s)                               : 2 channels
Channel positions                        : Front: L R
Sampling rate                            : 44.1 KHz
Frame rate                               : 43.066 fps (1024 SPF)
Compression mode                         : Lossy
Stream size                              : 126 MiB (7%)
Source stream size                       : 126 MiB (7%)
Title                                    : Ukrainian Stereo
Language                                 : Ukrainian
Default                                  : No
Alternate group                          : 1
Encoded date                             : UTC 2018-07-04 12:47:38
Tagged date                              : UTC 2018-07-04 12:47:51
Subtitles                                : 6

Text #1
ID                                       : 5
Format                                   : Timed Text
Muxing mode                              : sbtl
Codec ID                                 : tx3g
Duration                                 : 2h 11mn
Bit rate mode                            : Variable
Bit rate                                 : 2 bps
Stream size                              : 2.29 KiB (0%)
Title                                    : Russian forced
Language                                 : Russian
Default                                  : Yes
Forced                                   : Yes
Alternate group                          : 2
Encoded date                             : UTC 2018-07-04 12:47:38
Tagged date                              : UTC 2018-07-04 12:47:50
Subtitles For                            : 2
Full Alternative                         : 7

Text #2
ID                                       : 6
Format                                   : Timed Text
Muxing mode                              : sbtl
Codec ID                                 : tx3g
Duration                                 : 2h 11mn
Bit rate mode                            : Variable
Bit rate                                 : 3 bps
Stream size                              : 3.00 KiB (0%)
Title                                    : Ukrainian forced
Language                                 : Ukrainian
Default                                  : No
Forced                                   : Yes
Alternate group                          : 2
Encoded date                             : UTC 2018-07-04 12:47:38
Tagged date                              : UTC 2018-07-04 12:47:50
Subtitles For                            : 4

Text #3
ID                                       : 7
Format                                   : Timed Text
Muxing mode                              : sbtl
Codec ID                                 : tx3g
Duration                                 : 2h 11mn
Bit rate mode                            : Variable
Bit rate                                 : 97 bps
Stream size                              : 93.2 KiB (0%)
Title                                    : Russian full
Language                                 : Russian
Default                                  : No
Forced                                   : No
Alternate group                          : 2
Encoded date                             : UTC 2018-07-04 12:47:38
Tagged date                              : UTC 2018-07-04 12:47:50
Subtitles For                            : 2
Forced Alternative                       : 5

Text #4
ID                                       : 8
Format                                   : Timed Text
Muxing mode                              : sbtl
Codec ID                                 : tx3g
Duration                                 : 2h 9mn
Bit rate mode                            : Variable
Bit rate                                 : 66 bps
Stream size                              : 62.6 KiB (0%)
Title                                    : English full
Language                                 : English
Default                                  : No
Forced                                   : No
Alternate group                          : 2
Encoded date                             : UTC 2018-07-04 12:47:38
Tagged date                              : UTC 2018-07-04 12:47:50

Menu #1
00:00:00.000                             : 1
00:10:08.000                             : 2
00:20:17.000                             : 3
00:30:37.000                             : 4
00:40:38.000                             : 5
00:50:08.000                             : 6
01:03:01.000                             : 7
01:11:55.000                             : 8
01:20:14.000                             : 9
01:30:56.999                             : 10
01:43:26.000                             : 11
01:53:02.000                             : 12
02:04:20.000                             : 13
02:09:16.000                             : 14

Menu #2
ID                                       : 9
Codec ID                                 : text
Duration                                 : 2h 19mn
Language                                 : English
Encoded date                             : UTC 2018-07-04 12:47:51
Tagged date                              : UTC 2018-07-04 12:47:51
Menu For                                 : 1
00:00:00.000                             : 1
00:10:08.000                             : 2
00:20:17.000                             : 3
00:30:37.000                             : 4
00:40:38.000                             : 5
00:50:08.000                             : 6
01:03:01.000                             : 7
01:11:55.000                             : 8
01:20:14.000                             : 9
01:30:56.999                             : 10
01:43:26.000                             : 11
01:53:02.000                             : 12
02:04:20.000                             : 13
02:09:16.000                             : 14
Bit rate mode                            : VBR
x264 [info]: frame I:4515  Avg QP:20.03  size: 17649
x264 [info]: frame P:196779 Avg QP:21.39  size:  6526
x264 [info]: mb I  I16..4: 29.7%  0.0% 70.3%
x264 [info]: mb P  I16..4:  2.5%  0.0%  6.0%  P16..4: 41.5% 20.0%  7.7%  0.0%  0.0%    skip:22.2%
x264 [info]: coded y,uvDC,uvAC intra: 60.4% 74.8% 40.9% inter: 25.4% 21.0% 3.5%
x264 [info]: i16 v,h,dc,p: 32% 18%  9% 41%
x264 [info]: i4 v,h,dc,ddl,ddr,vr,hd,vl,hu: 32% 16% 15%  6%  7%  7%  6%  6%  4%
x264 [info]: i8c dc,h,v,p: 49% 17% 25%  9%
x264 [info]: ref P L0: 77.4% 22.6%
x264 [info]: kb/s:1299.59

Релиз подготовлен для просмотра на Apple TV, iPad, iPhone, iPod Touch.
Для просмотра данного релиза на компьютере с ОС Windows рекомендуется использовать VLC media player

Трекер:  [ 04-Июл-2018 16:36 ]

  

Скачать .torrent

Размер .torrent файла 33 KB


Размер: 1.65 GB
Хэш (hash) релиза: 5b025d22a217320c6f17d5d1017e3f993b3b6f0e

Торренты, похожие на Первому игроку приготовиться Ready Player One скачать торрент

Форум Название Автор Размер S L Добавлен
Видео (iPhone/iPod Touch/iPad) ·%· Первому игроку приготовиться / Ready Player One (Стивен Спилберг / Steven Spielberg ) [2018, США, Фантастика, боевик, приключения, BDRip, HD (720p)] DUB + Original + sub (rus, eng) Galfimbul 50755742744.73 GB 0 0 1530810402

20:06

5-Июл-18

Видео (iPhone/iPod Touch/iPad) ·%· [ATV3] Первому игроку приготовиться / Ready Player One (Стивен Спилберг / Steven Spielberg ) [2018, США, Фантастика, боевик, приключения, BDRip, HD (1080p)] DUB + Original + sub (rus, eng) Galfimbul 98093829339.14 GB 0 0 1530786996

13:36

5-Июл-18

Видео (iPhone/iPod Touch/iPad) ·%· [iPad] Первому игроку приготовиться / Ready Player One (Стивен Спилберг / Steven Spielberg ) [2018, США, Фантастика, боевик, приключения, WEB-DLRip, SD (576p)] DUB + Original + sub (rus, ukr, eng) Galfimbul 27143422352.53 GB 2 0 1530707796

15:36

4-Июл-18

Видео (iPhone/iPod Touch/iPad) ·%· [ATV3] Первому игроку приготовиться / Ready Player One (Стивен Спилберг / Steven Spielberg ) [2018, США, Фантастика, боевик, приключения, WEB-DL, HD (1080p)] DUB + Original + sub (rus, eng) Galfimbul 61207329175.7 GB 0 0 1530659178

02:06

4-Июл-18

Работа с носителями информации ·%· Первому игроку приготовиться / Ready Player One (Стивен Спилберг) [США, 2018, фантастика, боевик, приключения, WEB-DLRip] Dub [Лицензия] Galfimbul 23400016152.18 GB 0 0 1530479168

00:06

2-Июл-18

Работа с носителями информации ·%· Первому игроку приготовиться / Ready Player One (Стивен Спилберг) [США, 2018, фантастика, боевик, приключения, WEB-DLRip] Dub [Лицензия] Galfimbul 22045491262.05 GB 0 0 1529598967

19:36

21-Июн-18

Редакторы видео ·· Первому игроку приготовиться / Ready Player One (Стивен Спилберг) [США, 2018, фантастика, боевик, приключения, WEB-DLRip] Dub Galfimbul 22045491232.05 GB 0 0 1524899170

10:06

28-Апр-18

Редакторы видео ·· Первому игроку приготовиться / Ready Player One (Стивен Спилберг) [США, 2018, фантастика, боевик, приключения, WEB-DLRip] Dub Galfimbul 22045491212.05 GB 0 0 1523648167

22:36

13-Апр-18

Редакторы видео ·· Первому игроку приготовиться / Ready Player One (Стивен Спилберг) [США, 2018, фантастика, боевик, приключения, WEB-DLRip] Dub Galfimbul 22045491202.05 GB 0 0 1522359369

00:36

30-Мар-18

Еще никто не оставлял запись к записи скачать торрент Первому игроку приготовиться Ready Player One . Будь первым!

!Обратная связь