Kriminálka Anděl | The Handmaids Tale S01E01 WEBRip x264-RMTeam.srt | Michelle Yeoh

Скачать через торрент [ATV3] Первому игроку приготовиться Ready Player One бесплатно русская версия torrent активатор

Статистика раздачи
Размер:  5.7 GB   |    Зарегистрирован:  17 дней   |    .torrent скачан:  38 раз   |   
Раздают:  1  
   
загрузка...
 
Автор Сообщение

Galfimbul

avatar Galfimbul


Первому игроку приготовиться / Ready Player One
«Загрузи новую реальность»

7.508 / 10 7.70 / 10
Год выпуска: 2018
Страна: США
Жанр: Фантастика, боевик, приключения
Продолжительность: 02:19:55

Перевод: Дублированный (iTunes)
Оригинальная аудиодорожка: Есть
Cубтитры: Русские форсированные, Украинские форсированные, Русские, Английские
Режиссёр: Стивен Спилберг
Сценарий: Эрнест Клайн, Зак Пенн
Продюсер: Дональд Де Лайн, Дэн Фара, Кристи Макоско Кригер
Оператор: Януш Камински
Композитор: Алан Сильвестри
Художник: Адам Штокхаузен, Гай Брэдли, Гэвин Фитч
Монтаж: Сара Брошар, Майкл Кан
В ролях: Тай Шеридан, Оливия Кук, Бен Мендельсон, Лина Уэйте, ТиДжей Миллер, Саймон Пегг, Марк Райлэнс, Филип Чжао, Уин Морисаки, Ханна Джон-Кэймен

Сборы в США: $136 975 123
Сборы в мире: + $445 000 000 = $581 975 123
Сборы в России: $11 837 806

Мировая премьера: 11 марта 2018
Премьера (РФ): 29 марта 2018, «Каро-Премьер»

Цифровой релиз: 4 июля 2018, «Warner Bros.»

Описание: Действие фильма происходит в 2045 году, мир погружается в хаос и находится на грани коллапса. Люди ищут спасения в игре OASIS — огромной вселенной виртуальной реальности. Ее создатель, гениальный и эксцентричный Джеймс Холлидэй, оставляет уникальное завещание. Все его колоссальное состояние получит игрок, первым обнаруживший цифровое «пасхальное яйцо», которое миллиардер спрятал где-то на просторах OASISа. Запущенный им квест охватывает весь мир. Совершенно негероический парень по имени Уэйд Уоттс решает принять участие в состязании, с головой бросаясь в головокружительную, искажающую реальность погоню за сокровищами по фантастической вселенной, полной загадок, открытий и опасностей.
Качество исходника: WEB-DL 1080p (BlueBird)
Качество: WEB-DL
Тип: HD (1080p)
Контейнер: M4V
Видео: H.264, 1920x800, 2.40:1, 4 582 Kbps, 23.976 fps

Аудио 1: Русский/Дублированный (iTunes), AAC / 2.0 / 160 Kbps / 48.0 KHz
Аудио 2: Английский/Оригинальная дорожка , AAC / 2.0 / 160 Kbps / 48.0 KHz
Аудио 3: Украинский/Дублированный (iTunes), AAC / 2.0 / 160 Kbps / 44.1 KHz
Аудио 4: Русский/Дублированный (iTunes), AC-3 / 5.1 / 384 Kbps / 48.0 KHz
Аудио 5: Английский/Оригинальная дорожка , AC-3 / 5.1 / 384 Kbps / 48.0 KHz

Субтитры 1: Русские форсированные
Субтитры 2: Украинские форсированные
Субтитры 3: Русские полные
Субтитры 4: Английские полные
Sort Name: Ready Player One
XID: Apple:vendor_id:2018-538225
contentID: 1354248992
Copyright: © 2018 Warner Bros. Entertainment Inc., Village Roadshow Films North America Inc., RatPac-Dune Entertainment LLC. and Village Roadshow Films (BVI) Limited
Screenwriters: Эрнест Клайн, Зак Пенн
Producers: Дональд Де Лайн, Дэн Фара, Кристи Макоско Кригер
Director: Стивен Спилберг
Cast: Тай Шеридан, Оливия Кук, Бен Мендельсон, Лина Уэйте, ТиДжей Миллер, Саймон Пегг, Марк Райлэнс, Филип Чжао, Уин Морисаки, Ханна Джон-Кэймен
Studio: Warner Home Video
Rating: 4
Long Description: Действие фильма происходит в 2045 году, мир погружается в хаос и находится на грани коллапса. Люди ищут спасения в игре OASIS — огромной вселенной виртуальной реальности. Ее создатель, гениальный и эксцентричный Джеймс Холлидэй, оставляет уникальное завещание. Все его колоссальное состояние получит игрок, первым обнаруживший цифровое «пасхальное яйцо», которое миллиардер спрятал где-то на просторах OASISа. Запущенный им квест охватывает весь мир. Совершенно негероический парень по имени Уэйд Уоттс решает принять участие в состязании, с головой бросаясь в головокружительную, искажающую реальность погоню за сокровищами по фантастической вселенной, полной загадок, открытий и опасностей.
Description: Действие фильма происходит в 2045 году, мир погружается в хаос и находится на грани коллапса. Люди ищут спасения в игре OASIS — огромной вселенной виртуальной реальности. Ее создатель, гениальный и эксцентричный Джеймс Холлидэй, оставляет уникальное завещание. Все его колоссальное состояние получит игрок, первым обнаруживший цифровое «пасхальное яйцо», которое миллиардер спрятал где-то на просторах OASISа.
Release Date: 2018-03-29T07:00:00Z
Genre: Action & Adventure
Artist: Steven Spielberg
Name: Ready Player One
General
Complete name                            : /Users/imac/HandBrake/Ready.Player.One.WEB-DL.1080p.m4v
Format                                   : MPEG-4
Codec ID                                 : M4V  (M4V /M4A /mp42/isom)
File size                                : 5.70 GiB
Duration                                 : 2h 19mn
Overall bit rate mode                    : Variable
Overall bit rate                         : 5 832 Kbps
Movie name                               : Ready Player One
Performer                                : Steven Spielberg
Director                                 : Стивен Спилберг
Actor                                    : Тай Шеридан / Оливия Кук / Бен Мендельсон / Лина Уэйте / ТиДжей Миллер / Саймон Пегг / Марк Райлэнс / Филип Чжао / Уин Морисаки / Ханна Джон-Кэймен
Screenplay by                            : Эрнест Клайн / Зак Пенн
Producer                                 : Дональд Де Лайн / Дэн Фара / Кристи Макоско Кригер
Production studio                        : Warner Home Video
Genre                                    : Action & Adventure
ContentType                              : Short Film
Description                              : Действие фильма происходит в 2045 году, мир погружается в хаос и находится на грани коллапса. Люди ищут спасения в игре OASIS — огромной вселенной виртуальной реальности. Ее создатель, гениальный и эксцентричный Джеймс Холлидэй, оставляет уникальное завещание. Все его колоссальное состояние получит игрок, первым обнаруживший цифровое «пасхальное яйцо», которое миллиардер спрятал где-то на просторах OASISа.
Recorded date                            : UTC 2018-03-29 07:00:00
Encoded date                             : UTC 2018-07-03 22:25:48
Tagged date                              : UTC 2018-07-03 22:28:37
Copyright                                : © 2018 Warner Bros. Entertainment Inc., Village Roadshow Films North America Inc., RatPac-Dune Entertainment LLC. and Village Roadshow Films (BVI) Limited
Cover                                    : Yes
Rating                                   : None
Title/Sort                               : Ready Player One
LongDescription                          : Действие фильма происходит в 2045 году, мир погружается в хаос и находится на грани коллапса. Люди ищут спасения в игре OASIS — огромной вселенной виртуальной реальности. Ее создатель, гениальный и эксцентричный Джеймс Холлидэй, оставляет уникальное завещание. Все его колоссальное состояние получит игрок, первым обнаруживший цифровое «пасхальное яйцо», которое миллиардер спрятал где-то на просторах OASISа. Запущенный им квест охватывает весь мир. Совершенно негероический парень по имени Уэйд Уоттс решает принять участие в состязании, с головой бросаясь в головокружительную, искажающую реальность погоню за сокровищами по фантастической вселенной, полной загадок, открытий и опасностей.
AppleStoreCatalogID                      : 1354248992
Vendor                                   : Apple:vendor_id:2018-538225
ContentRating                            : mpaa|PG-13|300|

Video #1
ID                                       : 1
Format                                   : AVC
Format/Info                              : Advanced Video Codec
Format profile                           : [email protected]
Format settings                          : CABAC / 5 Ref Frames
Format settings, CABAC                   : Yes
Format settings, ReFrames                : 5 frames
Codec ID                                 : avc1
Codec ID/Info                            : Advanced Video Coding
Duration                                 : 2h 19mn
Bit rate                                 : 4 582 Kbps
Width                                    : 1 920 pixels
Height                                   : 800 pixels
Display aspect ratio                     : 2.40:1
Frame rate mode                          : Variable
Frame rate                               : 23.976 fps
Minimum frame rate                       : 23.810 fps
Maximum frame rate                       : 24.390 fps
Color space                              : YUV
Chroma subsampling                       : 4:2:0
Bit depth                                : 8 bits
Scan type                                : Progressive
Bits/(Pixel*Frame)                       : 0.124
Stream size                              : 4.48 GiB (79%)
Title                                    : Main Program
Language                                 : English
Encoded date                             : UTC 2018-07-03 22:25:48
Tagged date                              : UTC 2018-07-03 22:26:02
Color range                              : Limited
Color primaries                          : BT.709
Transfer characteristics                 : BT.709
Matrix coefficients                      : BT.709
Menus                                    : 11,12

Video #2
ID                                       : 12
Format                                   : JPEG
Codec ID                                 : jpeg
Duration                                 : 2h 19mn
Bit rate mode                            : Variable
Bit rate                                 : 578 bps
Width                                    : 640 pixels
Height                                   : 266 pixels
Display aspect ratio                     : 2.40:1
Frame rate mode                          : Variable
Frame rate                               : 0.002 fps
Minimum frame rate                       : 0.001 fps
Maximum frame rate                       : 0.003 fps
Color space                              : YUV
Chroma subsampling                       : 4:2:0
Bit depth                                : 8 bits
Compression mode                         : Lossy
Bits/(Pixel*Frame)                       : 1.698
Stream size                              : 494 KiB (0%)
Title                                    : Chapter Images
Language                                 : English
Default                                  : No
Encoded date                             : UTC 2018-07-03 22:26:11
Tagged date                              : UTC 2018-07-03 22:26:12
Menu For                                 : 1
ColorSpace_ICC                           : RGB

Audio #1
ID                                       : 2
Format                                   : AAC
Format/Info                              : Advanced Audio Codec
Format profile                           : LC
Codec ID                                 : mp4a-40-2
Duration                                 : 2h 19mn
Source duration                          : 2h 19mn
Bit rate mode                            : Variable
Bit rate                                 : 158 Kbps
Maximum bit rate                         : 233 Kbps
Channel(s)                               : 2 channels
Channel positions                        : Front: L R
Sampling rate                            : 48.0 KHz
Frame rate                               : 46.875 fps (1024 SPF)
Compression mode                         : Lossy
Stream size                              : 158 MiB (3%)
Source stream size                       : 158 MiB (3%)
Title                                    : Russian Stereo
Language                                 : Russian
Default                                  : Yes
Alternate group                          : 1
Encoded date                             : UTC 2018-07-03 22:25:48
Tagged date                              : UTC 2018-07-03 22:26:06
Fallback From                            : 5
Subtitles                                : 7,9

Audio #2
ID                                       : 3
Format                                   : AAC
Format/Info                              : Advanced Audio Codec
Format profile                           : LC
Codec ID                                 : mp4a-40-2
Duration                                 : 2h 19mn
Source duration                          : 2h 19mn
Bit rate mode                            : Variable
Bit rate                                 : 157 Kbps
Maximum bit rate                         : 241 Kbps
Channel(s)                               : 2 channels
Channel positions                        : Front: L R
Sampling rate                            : 48.0 KHz
Frame rate                               : 46.875 fps (1024 SPF)
Compression mode                         : Lossy
Stream size                              : 158 MiB (3%)
Source stream size                       : 158 MiB (3%)
Title                                    : English Stereo
Language                                 : English
Default                                  : No
Alternate group                          : 1
Encoded date                             : UTC 2018-07-03 22:25:48
Tagged date                              : UTC 2018-07-03 22:26:06
Fallback From                            : 6

Audio #3
ID                                       : 4
Format                                   : AAC
Format/Info                              : Advanced Audio Codec
Format profile                           : LC
Codec ID                                 : mp4a-40-2
Duration                                 : 2h 19mn
Source duration                          : 2h 19mn
Bit rate mode                            : Variable
Bit rate                                 : 156 Kbps
Maximum bit rate                         : 261 Kbps
Channel(s)                               : 2 channels
Channel positions                        : Front: L R
Sampling rate                            : 44.1 KHz
Frame rate                               : 43.066 fps (1024 SPF)
Compression mode                         : Lossy
Stream size                              : 156 MiB (3%)
Source stream size                       : 156 MiB (3%)
Title                                    : Ukrainian Stereo
Language                                 : Ukrainian
Default                                  : No
Alternate group                          : 1
Encoded date                             : UTC 2018-07-03 22:25:48
Tagged date                              : UTC 2018-07-03 22:26:05
Subtitles                                : 8

Audio #4
ID                                       : 5
Format                                   : AC-3
Format/Info                              : Audio Coding 3
Codec ID                                 : ac-3
Duration                                 : 2h 19mn
Bit rate mode                            : Constant
Bit rate                                 : 384 Kbps
Channel(s)                               : 6 channels
Channel positions                        : Front: L C R, Side: L R, LFE
Sampling rate                            : 48.0 KHz
Frame rate                               : 31.250 fps (1536 SPF)
Bit depth                                : 16 bits
Compression mode                         : Lossy
Stream size                              : 384 MiB (7%)
Title                                    : Russian DD 5.1
Language                                 : Russian
Service kind                             : Complete Main
Default                                  : Inherited From: 2
Alternate group                          : 1
Encoded date                             : UTC 2018-07-03 22:25:48
Tagged date                              : UTC 2018-07-03 22:26:02
Fallback To                              : 2
Subtitles                                : 7,9

Audio #5
ID                                       : 6
Format                                   : AC-3
Format/Info                              : Audio Coding 3
Codec ID                                 : ac-3
Duration                                 : 2h 19mn
Bit rate mode                            : Constant
Bit rate                                 : 384 Kbps
Channel(s)                               : 6 channels
Channel positions                        : Front: L C R, Side: L R, LFE
Sampling rate                            : 48.0 KHz
Frame rate                               : 31.250 fps (1536 SPF)
Bit depth                                : 16 bits
Compression mode                         : Lossy
Stream size                              : 384 MiB (7%)
Title                                    : English DD 5.1
Language                                 : English
Service kind                             : Complete Main
Default                                  : No
Alternate group                          : 1
Encoded date                             : UTC 2018-07-03 22:25:48
Tagged date                              : UTC 2018-07-03 22:26:02
Fallback To                              : 3

Text #1
ID                                       : 7
Format                                   : Timed Text
Muxing mode                              : sbtl
Codec ID                                 : tx3g
Duration                                 : 2h 11mn
Bit rate mode                            : Variable
Bit rate                                 : 2 bps
Stream size                              : 2.35 KiB (0%)
Title                                    : Russian forced
Language                                 : Russian
Default                                  : Yes
Forced                                   : Yes
Alternate group                          : 2
Encoded date                             : UTC 2018-07-03 22:25:48
Tagged date                              : UTC 2018-07-03 22:26:02
Subtitles For                            : 2,5
Full Alternative                         : 9

Text #2
ID                                       : 8
Format                                   : Timed Text
Muxing mode                              : sbtl
Codec ID                                 : tx3g
Duration                                 : 2h 19mn
Bit rate mode                            : Variable
Bit rate                                 : 3 bps
Stream size                              : 3.07 KiB (0%)
Title                                    : Ukrainian forced
Language                                 : Ukrainian
Default                                  : No
Forced                                   : Yes
Alternate group                          : 2
Encoded date                             : UTC 2018-07-03 22:25:48
Tagged date                              : UTC 2018-07-03 22:26:02
Subtitles For                            : 4

Text #3
ID                                       : 9
Format                                   : Timed Text
Muxing mode                              : sbtl
Codec ID                                 : tx3g
Duration                                 : 2h 11mn
Bit rate mode                            : Variable
Bit rate                                 : 97 bps
Stream size                              : 93.3 KiB (0%)
Title                                    : Russian full
Language                                 : Russian
Default                                  : No
Forced                                   : No
Alternate group                          : 2
Encoded date                             : UTC 2018-07-03 22:25:48
Tagged date                              : UTC 2018-07-03 22:26:03
Subtitles For                            : 2,5
Forced Alternative                       : 7

Text #4
ID                                       : 10
Format                                   : Timed Text
Muxing mode                              : sbtl
Codec ID                                 : tx3g
Duration                                 : 2h 9mn
Bit rate mode                            : Variable
Bit rate                                 : 66 bps
Stream size                              : 62.6 KiB (0%)
Title                                    : English full
Language                                 : English
Default                                  : No
Forced                                   : No
Alternate group                          : 2
Encoded date                             : UTC 2018-07-03 22:25:48
Tagged date                              : UTC 2018-07-03 22:25:48

Menu #1
00:00:00.000                             : 1
00:10:08.000                             : 2
00:20:17.000                             : 3
00:30:37.000                             : 4
00:40:38.000                             : 5
00:50:08.000                             : 6
01:03:01.000                             : 7
01:11:55.000                             : 8
01:20:14.000                             : 9
01:30:56.999                             : 10
01:43:26.000                             : 11
01:53:02.000                             : 12
02:04:20.000                             : 13
02:09:16.000                             : 14

Menu #2
ID                                       : 11
Codec ID                                 : text
Duration                                 : 2h 19mn
Language                                 : English
Encoded date                             : UTC 2018-07-03 22:26:06
Tagged date                              : UTC 2018-07-03 22:26:06
Menu For                                 : 1
00:00:00.000                             : 1
00:10:08.000                             : 2
00:20:17.000                             : 3
00:30:37.000                             : 4
00:40:38.000                             : 5
00:50:08.000                             : 6
01:03:01.000                             : 7
01:11:55.000                             : 8
01:20:14.000                             : 9
01:30:56.999                             : 10
01:43:26.000                             : 11
01:53:02.000                             : 12
02:04:20.000                             : 13
02:09:16.000                             : 14
Bit rate mode                            : VBR

Релиз подготовлен для просмотра на Apple TV, iPad, iPhone, iPod Touch.
Для просмотра данного релиза на компьютере с ОС Windows рекомендуется использовать VLC media player

Трекер:  [ 04-Июл-2018 02:06 ]

  

Скачать .torrent

Размер .torrent файла 57 KB


Размер: 5.7 GB
Хэш (hash) релиза: fe845e0c36ebe049bbeb87e611d33165b35b0cfc

Торренты, похожие на [ATV3] Первому игроку приготовиться Ready Player One скачать торрент

Форум Название Автор Размер S L Добавлен
Видео (iPhone/iPod Touch/iPad) ·%· [ATV3] Первому игроку приготовиться / Ready Player One (Стивен Спилберг / Steven Spielberg ) [2018, США, Фантастика, боевик, приключения, BDRip, HD (1080p)] DUB + Original + sub (rus, eng) Galfimbul 98093829339.14 GB 0 0 1530786996

13:36

5-Июл-18

Еще никто не оставлял запись к записи скачать торрент [ATV3] Первому игроку приготовиться Ready Player One . Будь первым!

!Обратная связь