Tsui no Sumika | Robert Griffin | House Interior Garden

Скачать через торрент Хит-парад древности. Первая десятка Фильм бесплатно в хорошем качестве torrent

Скачивайте на UnionPeer.org фильмы через торрент без регистрации. Новинки кино в хорошем качестве через торрент. На UnionPeer.org можно скачать через торрент фильмы 2014 и 2015 годов. Самые новые фильмы.

Скачать торрент Хит-парад древности. Первая десятка бесплатно через .torrent фильм мультфильм сериал

Статистика раздачи
Размер:  2.34 GB   |    Зарегистрирован:  14 дней   |    .torrent скачан:  38 раз   |   
Раздают:  1  
   
загрузка...
 
Автор Сообщение

Galfimbul

avatar Galfimbul


Хит-парад древности. Первая десятка (4 серии из 10) / Ancient Top 10

Дата/Год выпуска: 2016
Страна: США, A&E Television Networks
Жанр: Документальный, научно-популярный, история
Продолжительность: 4 x ~ 00:40:00
Перевод: Профессиональный (дублированный)
Телеканал: H2

Описание: Подробный рассказ о том, как работали древние технологии. В программе принимают участие Беттани Хьюз и Эндри Торбет, которые познакомят зрителей с десятью выдающимися изобретениями древности. Каждая серия будет посвящена определенной теме: «Самое смертоносное оружие», «Тайны Египта», «Древний Рим». Удивительно, каким «продвинутым» был древний мир.

Доп. информация: Авторство релиза - alf62


качество: HDTVRip
формат: AVI
Видео: 720x400 (1.80:1), 25 fps, XviD build 73 ~1899 kbps avg, 0.26 bit/pixel
Аудио: 48 kHz, AC3 Dolby Digital, 2/0 (L,R) ch, ~192.00 kbps avgХит-парад древности. Первая десятка / Ancient Top 10 на rutracker.cr
5. Великие достижения Рима
Цивилизация Древнего Рима, определившая ход европейской истории, знала немало примеров передовых технологий. В этой серии - рассказ о крупнейших прорывах в инженерном искусстве Древнего Рима.

6. Тайны древности / Ancient Mysteries
У многих древних цивилизаций была на удивление развитая технология. Это рассказ о древних компьютерах, о моделях летательных аппаратов и о способах транспортировки камней весом в сотни тонн.

7. Технологии Древней Греции / Ancient Greek Tech
Древние греки изобрели философию, демократию и... робототехнику? От «лучей смерти», придуманных Архимедом, до автоматических дверей Герона - какую древнегреческую технологию можно назвать наиболее передовой?

9. Величайшие архитектурные сооружения / Greatest Ancient Monuments
Величайшие архитектурные сооружения древности демонстрируют не только богатство, но и власть. От загадочного Стоунхенджа до величественного Карнакского храма - какое древнее сооружение получит звание самого потрясающего?
ОбщееПолное имя : E:\Запись\Хит-парад древности Первая десятка\Ancient.Top.10.XviD.2016.HDTVRip.alf62\09.Величайшие.архитектурные.сооружения.XviD.2016.HDTVRip.alf62.aviФормат : AVIФормат/Информация : Audio Video InterleaveРазмер файла : 591 МбайтПродолжительность : 39 м.Общий поток : 2102 Кбит/секПрограмма кодирования : VirtualDubMod 1.5.10.3 | www.virtualdub-fr.org || (build 2550/release)Библиотека кодирования : VirtualDubMod build 2550/release

ВидеоИдентификатор : 0Формат : MPEG-4 VisualПрофиль формата : Advanced [email protected]Параметр BVOP формата : 2Параметр QPel формата : НетПараметр GMC формата : Без точки переходаПараметр матрицы формата : Default (MPEG)Идентификатор кодека : XVIDИдентификатор кодека/Подсказка : XviDПродолжительность : 39 м.Битрейт : 1900 Кбит/секШирина : 720 пикселейВысота : 400 пикселейСоотношение сторон : 16:9Частота кадров : 25,000 кадров/секЦветовое пространство : YUVСубдискретизация насыщенности : 4:2:0Битовая глубина : 8 битТип развёртки : ПрогрессивнаяМетод сжатия : С потерямиБит/(Пиксели*Кадры) : 0.264Размер потока : 534 Мбайт (90%)Библиотека кодирования : XviD 73

АудиоИдентификатор : 1Формат : AC-3Формат/Информация : Audio Coding 3Расширение режима : CM (complete main)Параметр Endianness формата : BigИдентификатор кодека : 2000Продолжительность : 39 м.Вид битрейта : ПостоянныйБитрейт : 192 Кбит/секКаналы : 2 каналаРасположение каналов : Front: L RЧастота : 48,0 КГцБитовая глубина : 16 битМетод сжатия : С потерямиРазмер потока : 54,0 Мбайт (9%)Выравнивание : Разделение по промежуткамПродолжительность промежутка : 40 мс. (1,00 видеокадр)Время предзагрузки промежутка : 500 мс.


Трекер:  [ 03-Июл-2018 22:12 ]

  

Скачать .torrent

Размер .torrent файла 12 KB


Размер: 2.34 GB
Хэш (hash) релиза: 1e9090c0f5a950b5fada00f2a63bed748113f089
Подписка на обновления:

Торренты, похожие на Хит-парад древности. Первая десятка скачать торрент

Форум Название Автор Размер S L Добавлен
Документальные фильмы и телепередачи ·· Хит-парад древности. Первая десятка (3 серии из 10) / Ancient Top 10 [2016, Документальный, научно-популярный, история, HDTVRip 720p] (Обновляемая) Galfimbul 39224287303.65 GB 0 0 1523023613

17:06

6-Апр-18

Еще никто не оставлял запись к записи скачать торрент Хит-парад древности. Первая десятка . Будь первым!

!Обратная связь