Sharp Objects Saison 1 | हिन्दी | Anthony McPartlin

Скачать через торрент Быть Сереной Being Serena Фильм бесплатно в хорошем качестве torrent

Скачивайте на UnionPeer.org фильмы через торрент без регистрации. Новинки кино в хорошем качестве через торрент. На UnionPeer.org можно скачать через торрент фильмы 2014 и 2015 годов. Самые новые фильмы.

Скачать торрент Быть Сереной Being Serena бесплатно через .torrent фильм мультфильм сериал

Статистика раздачи
Размер:  9.8 GB   |    Зарегистрирован:  20 дней   |    .torrent скачан:  28 раз   |   
Раздают:  1  
   
загрузка...
 
Автор Сообщение

Galfimbul

avatar Galfimbul


Быть Сереной / Being Serena


Год выпуска: 2018
Страна: США
Жанр: документальный, спорт
Продолжительность: 00:25:00
Перевод:

Профессиональный многоголосый закадровый KANSAI

Описание: В сериале теннисистка Серена Уильямс от первого лица рассказывает о беременности, дочери Алексис Олимпии, браке с Алексисом Оганяном и возвращении на корт.

Качество: WEB-DL 1080p
Формат: MKV
Видео: AVC, 1920x1080 (16:9), 12422 kbps, 23,976 fps, 0,250 bpp
Аудио №1: русский / AC3 / 2.0 / 48 kHz / 192 kbps
Аудио №2: английский / E-AC3 / 2.0 / 48 kHz / 224 kbps
Субтитры: English, English (SDH)
Реклама: аудио, два раза в начале и в конце по 13 секунд
General
Unique ID : 227739851866555787929979007099643137840 (0xAB55199B2C716655B6A12AF899948F30)
Complete name : G:\0_kansai\tor\Being.Serena.S01.1080p.WEBDL-KANSAI\Being.Serena.S01E01.Fear.1080p.WEBDL-KANSAI.mkv
Format : Matroska
Format version : Version 4 / Version 2
File size : 2.37 GiB
Duration : 25 min
Overall bit rate mode : Variable
Overall bit rate : 13.1 Mb/s
Encoded date : UTC 2018-06-29 12:51:12
Writing application : mkvmerge v6.7.0 ('Back to the Ground') 64bit built on Jan 8 2014 15:10:52
Writing library : libebml v1.3.0 + libmatroska v1.4.1

Video
ID : 1
Format : AVC
Format/Info : Advanced Video Codec
Format profile : [email protected]
Format settings, CABAC : Yes
Format settings, ReFrames : 4 frames
Codec ID : V_MPEG4/ISO/AVC
Duration : 25 min
Bit rate mode : Variable
Bit rate : 12.4 Mb/s
Maximum bit rate : 15.0 Mb/s
Width : 1 920 pixels
Height : 1 080 pixels
Display aspect ratio : 16:9
Frame rate mode : Constant
Frame rate : 23.976 (24000/1001) FPS
Color space : YUV
Chroma subsampling : 4:2:0
Bit depth : 8 bits
Scan type : Progressive
Bits/(Pixel*Frame) : 0.250
Stream size : 2.24 GiB (95%)
Default : Yes
Forced : No
Color range : Limited
Color primaries : BT.709
Transfer characteristics : BT.709
Matrix coefficients : BT.709

Audio #1
ID : 2
Format : AC-3
Format/Info : Audio Coding 3
Mode extension : CM (complete main)
Format settings, Endianness : Big
Codec ID : A_AC3
Duration : 25 min
Bit rate mode : Constant
Bit rate : 192 kb/s
Channel(s) : 2 channels
Channel positions : Front: L R
Sampling rate : 48.0 kHz
Frame rate : 31.250 FPS (1536 spf)
Compression mode : Lossy
Stream size : 35.5 MiB (1%)
Title : KANSAI Studio
Language : Russian
Default : Yes
Forced : No

Audio #2
ID : 3
Format : E-AC-3
Format/Info : Audio Coding 3
Format settings, Endianness : Big
Codec ID : A_EAC3
Duration : 25 min
Bit rate mode : Constant
Bit rate : 224 kb/s
Channel(s) : 2 channels
Channel positions : Front: L R
Sampling rate : 48.0 kHz
Frame rate : 187.500 FPS (256 spf)
Compression mode : Lossy
Stream size : 41.4 MiB (2%)
Language : English
Default : No
Forced : No

Text #1
ID : 4
Format : UTF-8
Codec ID : S_TEXT/UTF8
Codec ID/Info : UTF-8 Plain Text
Language : English
Default : No
Forced : No

Text #2
ID : 5
Format : UTF-8
Codec ID : S_TEXT/UTF8
Codec ID/Info : UTF-8 Plain Text
Title : SDH
Language : English
Default : No
Forced : No

Внимание! Раздача ведётся путём добавления новых серий; при каждом добавлении создаётся новый торрент. Чтобы начать докачку новой серии, пользователям необходимо сделать следующее:
(1) остановить скачивание,
(2) удалить старый торрент у себя из клиента (старые серии удалять не надо),
(3) скачать новый торрент и запустить его у себя в клиенте вместо старого, при этом указать клиенту путь в старую папку куда и должно происходить скачивание новых серий.
Ваш клиент при этом должен произвести хеширование (проверку) старой папки (если не производит сам - помогите ему сделать это), и будет докачивать только те серии которых у вас ещё нет. Старые серии при этом не удаляются, а продолжают раздаваться!
Eсли вы уже удалили старые серии, то предотвратить повторную закачку старых серий можно, отжав галочку в соответствующих местах при запуске нового торрента. По возможности, желательно не удалять старые серии как можно дольше чтобы релизёр не столько продолжал раздавать старые серии, а смог сконцентрироваться на новых.


Трекер:  [ 03-Июл-2018 05:36 ]

  

Скачать .torrent

Размер .torrent файла 49 KB


Размер: 9.8 GB
Хэш (hash) релиза: 0fba7f4293c50f6efaa6d50634beb9d4e47200b6
Подписка на обновления:

Еще никто не оставлял запись к записи скачать торрент Быть Сереной Being Serena . Будь первым!

!Обратная связь