Billions | OpenLoad | Jim Broadbent

Скачать через торрент Может, я встречу тебя в подземелье? Меч Оратории Dungeon ni Deai o Motomeru no wa Machigatte Iru Darouka Gaiden: Sword Oratoria бесплатно Аниме Все серии на русском torrent

Статистика раздачи
Размер:  85.08 GB   |    Зарегистрирован:  13 дней   |    .torrent скачан:  31 раз   |   
Раздают:  1  
   
загрузка...
 
Автор Сообщение

Galfimbul

avatar Galfimbul


Может, я встречу тебя в подземелье? Меч Оратории / Dungeon ni Deai o Motomeru no wa Machigatte Iru Darouka Gaiden: Sword Oratoria

Год выпуска: 2017
Страна: Япония
Жанр: приключения, фэнтези
Тип: TV
Продолжительность: 12 эп. по 24 мин.
Озвучка:

Двухголосая (муж/жен) от Sharon & LeeAnnushka (AniLibria)

Русские субтитры: есть (отдельным файлом, формат .ass)
Перевод:

Vaisiliok, Scarlet, Пиратехник [AniLibria]
lisiyaka, Mamori [AniPlay]
Хаттори [AOS]
КВОРYМ, Sk3wer [SovetRomantica]

Хардсаб: Нет
Режиссер: Судзуки Ёхэй
Студия: J.C. Staff

Описание: Спин-офф сериала "Dungeon ni Deai wo Motomeru no wa Machigatteiru Darou ka", главной героиней которого является одна из сильнейших мечниц города Орарио - Айз Валенштайн, известная среди всех также как "Принцесса меча".

История начинается, когда Айз вместе со своими союзниками отправляется в огромный лабиринт, известный как "Подземелье". Вместе они отправляются на пятидесятый уровень, на котором обитают различные неведомые создания, наподобие трупа разлагающегося дракона и многого другого. На том уровне она встречает юношу, которому требуется помощь. Тут, в этих лабиринтах города Орарио и пересекаются истории девушки и юноши.

Качество: Blu-Ray Remux
Формат: MKV
Видео кодек: AVC
Аудио кодек: FLAC
Видео: 1920x1080 (16:9) 23,976 fps ~37,5 Mbps 8bit
Аудио:
Jap FLAC, 48000Hz, ~1556 Kbps, 2ch
RUS (ext) AAC, 48000Hz, ~192 Kbps, 2ch

Чаптеры присутствуют.
01. Принцесса Меча и Эльф
02. Примерка и покупка
03. Фестиваль и отвага
04. Убийство и драгоценность
05. Красноволосая и одинокий правитель
06. Подчинение и побег
07. Просьбы и разделение
08. Порочность и Дева
09. Тренировки и зависть
10. Юноша и герой
11. Путешествие к неизведанному
12. Меч Оратории
Общее
Уникальный идентификатор : 135170311772041067914273915030458649713 (0x65B0DAE80E54A884DE17D3DBE908CC71)
Полное имя : Z:\Anime Release - working\Oratoria\[anti-raws]Dungeon ni Deai wo Motomeru no wa Machigatte Iru Darou ka Gaiden - Sword Oratoria ep.01[BDRemux].mkv
Формат : Matroska
Версия формата : Version 4 / Version 2
Размер файла : 6,62 Гбайт
Продолжительность : 23 м. 42 с.
Режим общего битрейта : Переменный
Общий поток : 40,0 Мбит/сек
Дата кодирования : UTC 2018-06-30 15:48:34
Программа кодирования : mkvmerge v23.0.0 ('The Bride Said No') 64-bit
Библиотека кодирования : libebml v1.3.6 + libmatroska v1.4.9

Видео
Идентификатор : 2
Формат : AVC
Формат/Информация : Advanced Video Codec
Профиль формата : [email protected]
Настройки формата : CABAC / 4 Ref Frames
Параметр CABAC формата : Да
Параметр RefFrames формата : 4 кадра
Идентификатор кодека : V_MPEG4/ISO/AVC
Продолжительность : 23 м. 42 с.
Вид битрейта : Переменный
Битрейт : 38,4 Мбит/сек
Максимальный битрейт : 40,0 Мбит/сек
Ширина : 1920 пикселей
Высота : 1080 пикселей
Соотношение сторон : 16:9
Режим частоты кадров : Постоянный
Частота кадров : 23,976 (24000/1001) кадра/сек
Цветовое пространство : YUV
Субдискретизация насыщенности : 4:2:0
Битовая глубина : 8 бит
Тип развёртки : Прогрессивная
Бит/(Пиксели*Кадры) : 0.773
Размер потока : 6,36 Гбайт (96%)
Default : Нет
Forced : Нет

Аудио
Идентификатор : 1
Формат : FLAC
Формат/Информация : Free Lossless Audio Codec
Идентификатор кодека : A_FLAC
Продолжительность : 23 м. 42 с.
Вид битрейта : Переменный
Битрейт : 1555 Кбит/сек
Каналы : 2 канала
Расположение каналов : Front: L R
Частота : 48,0 КГц
Частота кадров : 11,719 кадров/сек (4096 SPF)
Битовая глубина : 24 бит
Размер потока : 264 Мбайт (4%)
Библиотека кодирования : libFLAC 1.2.1 (UTC 2007-09-17)
Язык : Japanese
Default : Да
Forced : Нет

Меню
00:00:00.000 : en:00:00:00.000
00:01:50.027 : en:00:01:50.027
00:10:02.977 : en:00:10:02.977
00:22:05.991 : en:00:22:05.991
00:23:35.998 : en:00:23:35.998
...5388392
--HDTVRip

...5423326
...5572986
--BDRip

Эта раздача - BDRemux


Трекер:  [ 02-Июл-2018 21:30 ]

  

Скачать .torrent

Размер .torrent файла 129 KB


Размер: 85.08 GB
Хэш (hash) релиза: a175fceefc5bc8469732f30ace7dcd9cb5fedc73
Подписка на обновления:

Торренты, похожие на Может, я встречу тебя в подземелье? Меч Оратории Dungeon ni Deai o Motomeru no wa Machigatte Iru Darouka Gaiden: Sword Oratoria скачать торрент

Форум Название Автор Размер S L Добавлен
Аниме | HD Rips ·· Может, я встречу тебя в подземелье? Меч Оратории /Dungeon ni Deai o Motomeru no wa Machigatte Iru Darouka Gaiden: Sword Oratoria /Danmachi Gaiden: Sword Oratoria [TV] [01 из 12] [Без хардсаба] [JAP+SUB] [2017, приключения, фэнтези, BDRip] [1080p] Galfimbul 14794284171.38 GB 0 0 1498917717

17:01

1-Июл-17

Аниме | HD Rips ·· Может, я встречу тебя в подземелье? Меч Оратории /Dungeon ni Deai o Motomeru no wa Machigatte Iru Darouka Gaiden: Sword Oratoria /Danmachi Gaiden: Sword Oratoria [TV] [01-09 из 12] [Без хардсаба] [JAP+SUB] [2017, приключения, фэнтези, HDTVRip] [720p] Galfimbul 41488749243.86 GB 0 0 1497092513

14:01

10-Июн-17

Аниме | Rips ·· Может, я встречу тебя в подземелье? Меч Оратории / Dungeon ni Deai o Motomeru no wa Machigatte Iru Darouka Gaiden: Sword Oratoria / Danmachi Gaiden: Sword Oratoria [TV] [01 из 12] [Без хардсаба] [RUS(ext), JAP, SUB] [2017, Приключения, Фэнтези, Экшен Galfimbul 639068712609 MB 0 0 1492944185

13:43

23-Апр-17

Аниме | HD Rips ·· Может, я встречу тебя в подземелье? Меч Оратории /Dungeon ni Deai o Motomeru no wa Machigatte Iru Darouka Gaiden: Sword Oratoria /Danmachi Gaiden: Sword Oratoria [TV] [01-02 из 12] [Без хардсаба] [JAP+SUB] [2017, приключения, фэнтези, HDTVRip] [720p] Galfimbul 983592072938 MB 0 0 1492857738

13:42

22-Апр-17

Аниме | HD Rips ·· Может, я встречу тебя в подземелье? Меч Оратории / Dungeon ni Deai o Motomeru no wa Machigatte Iru Darouka Gaiden: Sword Oratoria / Danmachi [TV] [12 из 12] [Без хардсаба] [JAP+SUB] [2017, приключения, фэнтези, BDRip] [720p] Galfimbul 58524734965.45 GB 0 0 1528666213

00:30

11-Июн-18

Аниме | Rips ·· Может, я встречу тебя в подземелье? Меч Оратории / Dungeon ni Deai o Motomeru no wa Machigatte Iru Darouka Gaiden: Sword Oratoria / Danmachi [TV] [1-8 из 12] [Без хардсаба] [RUS(ext), JAP, SUB] [2017, Приключения, Фэнтези, Экшен, HDTVRip] [720p] Galfimbul 46044138934.29 GB 0 0 1496964817

02:33

9-Июн-17

Аниме | Rips ·· Может, я встречу тебя в подземелье? Меч Оратории / Dungeon ni Deai o Motomeru no wa Machigatte Iru Darouka Gaiden: Sword Oratoria / Danmachi [TV] [1-2 из 12] [Без хардсаба] [RUS(ext), JAP, SUB] [2017, Приключения, Фэнтези, Экшен, HDTVRip] [720p] Galfimbul 11227277901.05 GB 0 0 1492954867

16:41

23-Апр-17

Еще никто не оставлял запись к записи скачать торрент Может, я встречу тебя в подземелье? Меч Оратории Dungeon ni Deai o Motomeru no wa Machigatte Iru Darouka Gaiden: Sword Oratoria . Будь первым!

!Обратная связь