Girl Group War | Rowena King | Japanese

Скачать через торрент Мраморный карьер Рускеала Фильм бесплатно в хорошем качестве torrent

Скачивайте на UnionPeer.org фильмы через торрент без регистрации. Новинки кино в хорошем качестве через торрент. На UnionPeer.org можно скачать через торрент фильмы 2014 и 2015 годов. Самые новые фильмы.

Скачать торрент Мраморный карьер Рускеала бесплатно через .torrent фильм мультфильм сериал

Статистика раздачи
Размер:  1.5 GB   |    Зарегистрирован:  15 дней   |    .torrent скачан:  21 раз   |   
Раздают:  1  
   
загрузка...
 
Автор Сообщение

Galfimbul

avatar Galfimbul


Мраморный карьер Рускеала

Год выпуска: 2013
Страна: Россия
Студия: RTG TV
Жанр: документальный
Продолжительность: 00:24:08
Перевод: Не требуется
Режиссер: Елена Нупрейчик

Описание: Го́рный парк «Рускеа́ла» (фин. Ruskeala — «Коричневая, Бурая») — туристический комплекс, расположенный в Сортавальском районе Республики Карелия. Основой комплекса является объект культурного наследия, памятник истории — заполненный грунтовыми водами бывший мраморный карьер.

Тип релиза: HDTV 1080i
Контейнер: TS

Видео: AVC, PAL, 1920x1080, 16x9, 8256 Кbps, 25fps
Аудио: Русский, MP2, 2Ch, 48KHz, 192kbps
ОбщееИдентификатор : 1 (0x1)Полное имя : H:\Мраморный карьер Рускеала (RTGHD2013).tsФормат : MPEG-TSРазмер файла : 1,50 ГбайтПродолжительность : 24 м. 8 с.Режим общего битрейта : ПеременныйОбщий поток : 8889 Кбит/сек

ВидеоИдентификатор : 256 (0x100)Идентификатор меню : 1 (0x1)Формат : AVCФормат/Информация : Advanced Video CodecПрофиль формата : [email protected]Настройки формата : CABAC / 4 Ref FramesПараметр CABAC формата : ДаПараметр RefFrames формата : 4 кадраИдентификатор кодека : 27Продолжительность : 24 м. 8 с.Битрейт : 8256 Кбит/секШирина : 1920 пикселейВысота : 1080 пикселейСоотношение сторон : 16:9Частота кадров : 25,000 кадров/секСтандарт вещания : ComponentЦветовое пространство : YUVСубдискретизация насыщенности : 4:2:0Битовая глубина : 8 битТип развёртки : ЧересстрочнаяМетод сохранения типа развёртки : Раздельные поляПорядок развёртки : Верхнее поле первоеБит/(Пиксели*Кадры) : 0.159Размер потока : 1,39 Гбайт (93%)Цветовой диапазон : LimitedОсновные цвета : BT.709Характеристики трансфера : BT.709Коэффициенты матрицы : BT.709

АудиоИдентификатор : 257 (0x101)Идентификатор меню : 1 (0x1)Формат : MPEG AudioВерсия формата : Version 1Профиль формата : Layer 2Идентификатор кодека : 3Продолжительность : 24 м. 8 с.Вид битрейта : ПостоянныйБитрейт : 192 Кбит/секКаналы : 2 каналаЧастота : 48,0 КГцЧастота кадров : 41,667 кадра/сек (1152 SPF)Метод сжатия : С потерямиРазмер потока : 33,2 Мбайт (2%)Язык : Russian


Трекер:  [ 02-Июл-2018 19:06 ]

  

Скачать .torrent

Размер .torrent файла 15 KB


Размер: 1.5 GB
Хэш (hash) релиза: 10eb9dbe305cf5aa0ea135c4067959d02ad3434b
Подписка на обновления:

Еще никто не оставлял запись к записи скачать торрент Мраморный карьер Рускеала . Будь первым!

!Обратная связь