Matthew Lewis | [STRATOS] Nanatsu no Taizai Imashime no Fukkatsu - 19 [Español] [848x480p] [x264 AAC] [A16BD936].mp4 [STRATOS] Nanatsu no Taizai Imashime no Fukkatsu - 1... | Isekai Shokudou

Скачать порно через торрент A Kite Kite UnionPeer.org бесплатно онлайн HD качество

Скачать новое порно 2015, 2014 новинки через торрент UnionPeer.org

Порно торрент бесплатно ЮнионПир.орг

Статистика раздачи
Размер:  18.57 GB   |    Зарегистрирован:  16 дней   |    .torrent скачан:  78 раз   |   
Раздают:  1  
   
загрузка...
 
Автор Сообщение

Galfimbul

avatar Galfimbul


A Kite
Kite

Год выпуска: 1998
Жанр: drama, action, straight, violence
Серии: ep. 1-2 of 2
Продолжительность: 51mn
Цензура: Отсутствует

Озвучка: Японская оригинальная
Озвучка: Английская профессиональная (полное дублирование)
Субтитры: Английские

Режиссер: Umetsu Yasuomi
Автор оригинала: Umetsu Yasuomi
Студия: Beam Entertainment, Green Bunny, Amachi Yuudai, Arms, Kaneki Kaio

Описание: She may be cute. She may be young. She may seem innocent and naive, but don''t be fooled. She''s a cold-blooded killer, and if you''re on the wrong side of the law, you may be her next target. After being orphaned at a young age, her parents victims of a brutal double murder, Sawa was taken in by the detective assigned to her case. Not content to just watch as the imperfect justice system let more and more criminals go loose every day, he''s decided to train her to be his instrument of justice. After all, who''d suspect a pretty college student of being a deadly vigilante?

anidb

Доп. информация: Это версия без цензуры. На бд врезки с двд, качество безцензурных сцен плохое. Изображение 4-3 с чёрными полосами до 16-9. В бонусах интервью.

О переводе названия: Фрагмент интервью.
Почему такое название... Ну там были девочка-убийца Сава, и мальчик-убийца Обури. Они два главных персонажа. Так как они убийцы, должны быть заказчики. Они должны выполнять заказы клиентов. Никто из них не работает самостоятельно. Они привязаны невидимыми нитями. Я сравниваю их с воздушными змеями. Там есть тот, кто управляет, и тот, кем управляют. Таким образом, Сава и Обури находятся на привязи. И в конце истории они обрезают верёвки и улетают вдаль. Я решил выбрать название с таким оттенком.

Качество видео: 1080p
Формат видео: BDMV Video
Видео: MPEG 2, 1920-1080, 16-9, 23.976 fps, 30.6 mbps
Аудио1: jpn, PCM, Stereo, 48.0 KHz, 1536 Kbps
Аудио2: eng, PCM, Stereo, 48.0 KHz, 1536 Kbps
Аудио3: jpn, AC-3, 5.1, 48.0 KHz, 386 Kbps
Аудио4: eng, AC-3, 5.1, 48.0 KHz, 386 Kbps
Субтитры: Английские
General
ID : 0 (0x0)
Complete name : BDMV\STREAM\00000.m2ts
Format : BDAV
Format/Info : Blu-ray Video
File size : 12.9 GiB
Duration : 51 min 25 s
Overall bit rate mode : Variable
Overall bit rate : 35.8 Mb/s
Maximum Overall bit rate : 48.0 Mb/s

Video
ID : 4113 (0x1011)
Menu ID : 1 (0x1)
Format : MPEG Video
Format version : Version 2
Format profile : [email protected]
Format settings : BVOP
Format settings, BVOP : Yes
Format settings, Matrix : Default
Format settings, GOP : M=3, N=12
Codec ID : 2
Duration : 51 min 25 s
Bit rate mode : Variable
Bit rate : 30.6 Mb/s
Maximum bit rate : 35.0 Mb/s
Width : 1 920 pixels
Height : 1 080 pixels
Display aspect ratio : 16:9
Frame rate : 23.976 (24000/1001) FPS
Color space : YUV
Chroma subsampling : 4:2:0
Bit depth : 8 bits
Scan type : Progressive
Compression mode : Lossy
Bits/(Pixel*Frame) : 0.615
Time code of first frame : 00:00:41:02
Time code source : Group of pictures header
GOP, Open/Closed : Closed
Stream size : 11.0 GiB (85%)

Audio #1
ID : 4352 (0x1100)
Menu ID : 1 (0x1)
Format : PCM
Format settings : Big / Signed
Muxing mode : Blu-ray
Codec ID : 128
Duration : 51 min 25 s
Bit rate mode : Constant
Bit rate : 1 536 kb/s
Channel(s) : 2 channels
Channel positions : Front: L R
Sampling rate : 48.0 kHz
Bit depth : 16 bits
Stream size : 565 MiB (4%)

Audio #2
ID : 4353 (0x1101)
Menu ID : 1 (0x1)
Format : PCM
Format settings : Big / Signed
Muxing mode : Blu-ray
Codec ID : 128
Duration : 51 min 25 s
Bit rate mode : Constant
Bit rate : 1 536 kb/s
Channel(s) : 2 channels
Channel positions : Front: L R
Sampling rate : 48.0 kHz
Bit depth : 16 bits
Stream size : 565 MiB (4%)

Audio #3
ID : 4354 (0x1102)
Menu ID : 1 (0x1)
Format : AC-3
Format/Info : Audio Coding 3
Codec ID : 129
Duration : 51 min 25 s
Bit rate mode : Constant
Bit rate : 384 kb/s
Channel(s) : 6 channels
Channel positions : Front: L C R, Side: L R, LFE
Sampling rate : 48.0 kHz
Frame rate : 31.250 FPS (1536 SPF)
Bit depth : 16 bits
Compression mode : Lossy
Stream size : 141 MiB (1%)
Service kind : Complete Main

Audio #4
ID : 4355 (0x1103)
Menu ID : 1 (0x1)
Format : AC-3
Format/Info : Audio Coding 3
Codec ID : 129
Duration : 51 min 25 s
Bit rate mode : Constant
Bit rate : 384 kb/s
Channel(s) : 6 channels
Channel positions : Front: L C R, Side: L R, LFE
Sampling rate : 48.0 kHz
Frame rate : 31.250 FPS (1536 SPF)
Bit depth : 16 bits
Compression mode : Lossy
Stream size : 141 MiB (1%)
Service kind : Complete Main

Text #1
ID : 4608 (0x1200)
Menu ID : 1 (0x1)
Format : PGS
Codec ID : 144

Text #2
ID : 4609 (0x1201)
Menu ID : 1 (0x1)
Format : PGS
Codec ID : 144


Трекер:  [ 02-Июл-2018 18:23 ]

  

Скачать .torrent

Размер .torrent файла 97 KB


Размер: 18.57 GB
Хэш (hash) релиза: 17e5baee8c32f2129ec4440a084329ea7ec76211

Еще никто не оставлял запись к записи скачать торрент A Kite Kite . Будь первым!

!Обратная связь