More quotes... | The Avengers (2012) | Running Man Episode 7

Скачать через торрент Реки Среднего Урала Фильм бесплатно в хорошем качестве torrent

Скачивайте на UnionPeer.org фильмы через торрент без регистрации. Новинки кино в хорошем качестве через торрент. На UnionPeer.org можно скачать через торрент фильмы 2014 и 2015 годов. Самые новые фильмы.

Скачать торрент Реки Среднего Урала бесплатно через .torrent фильм мультфильм сериал

Статистика раздачи
Размер:  1.49 GB   |    Зарегистрирован:  15 дней   |    .torrent скачан:  26 раз   |   
Раздают:  1  
   
загрузка...
 
Автор Сообщение

Galfimbul

avatar Galfimbul


Реки Среднего Урала

Год выпуска: 2013
Страна: Россия
Студия: RTG TV
Жанр: документальный
Продолжительность: 00:23:41
Перевод: Не требуется
Режиссер: Сергей Ермоленко

Описание: Реки Среднего Урала характерны медленным, спокойным течением. В долинах их часто встречаются береговые утесы, называемые "бойцами" или "камнями".

Тип релиза: HDTV 1080i
Контейнер: TS

Видео: AVC, PAL, 1920x1080, 16x9, 8380 Кbps, 25fps
Аудио: Русский, MP2, 2Ch, 48KHz, 192kbps
ОбщееИдентификатор : 1 (0x1)Полное имя : H:\Реки Среднего Урала (RTG2013).tsФормат : MPEG-TSРазмер файла : 1,49 ГбайтПродолжительность : 23 м. 41 с.Режим общего битрейта : ПеременныйОбщий поток : 9019 Кбит/сек

ВидеоИдентификатор : 202 (0xCA)Идентификатор меню : 20102 (0x4E86)Формат : AVCФормат/Информация : Advanced Video CodecПрофиль формата : [email protected]Настройки формата : CABAC / 4 Ref FramesПараметр CABAC формата : ДаПараметр RefFrames формата : 4 кадраИдентификатор кодека : 27Продолжительность : 23 м. 41 с.Битрейт : 8380 Кбит/секШирина : 1920 пикселейВысота : 1080 пикселейСоотношение сторон : 16:9Частота кадров : 25,000 кадров/секСтандарт вещания : ComponentЦветовое пространство : YUVСубдискретизация насыщенности : 4:2:0Битовая глубина : 8 битТип развёртки : ЧересстрочнаяМетод сохранения типа развёртки : Раздельные поляПорядок развёртки : Верхнее поле первоеБит/(Пиксели*Кадры) : 0.162Размер потока : 1,39 Гбайт (93%)Цветовой диапазон : LimitedОсновные цвета : BT.709Характеристики трансфера : BT.709Коэффициенты матрицы : BT.709

АудиоИдентификатор : 302 (0x12E)Идентификатор меню : 20102 (0x4E86)Формат : MPEG AudioВерсия формата : Version 1Профиль формата : Layer 2Идентификатор кодека : 3Продолжительность : 23 м. 41 с.Вид битрейта : ПостоянныйБитрейт : 192 Кбит/секКаналы : 2 каналаЧастота : 48,0 КГцЧастота кадров : 41,667 кадра/сек (1152 SPF)Метод сжатия : С потерямиЗадержка видео : -40 мс.Размер потока : 32,5 Мбайт (2%)Язык : Russian


Трекер:  [ 02-Июл-2018 18:06 ]

  

Скачать .torrent

Размер .torrent файла 15 KB


Размер: 1.49 GB
Хэш (hash) релиза: 4b52f0161fa1bd13c2bcc11d768a7a0ccd4f00ac
Подписка на обновления:

Еще никто не оставлял запись к записи скачать торрент Реки Среднего Урала . Будь первым!

!Обратная связь