Kidnap (2017) 720p -YTS | Fun Mom Dinner streaming | Andy Bates

Скачать через торрент Берега Сезон: 1 Фильм бесплатно в хорошем качестве torrent

Скачивайте на UnionPeer.org фильмы через торрент без регистрации. Новинки кино в хорошем качестве через торрент. На UnionPeer.org можно скачать через торрент фильмы 2014 и 2015 годов. Самые новые фильмы.

Скачать торрент Берега Сезон: 1 бесплатно через .torrent фильм мультфильм сериал

Статистика раздачи
Размер:  2.11 GB   |    Зарегистрирован:  18 дней   |    .torrent скачан:  57 раз   |   
Раздают:  1  
   
загрузка...
 
Автор Сообщение

Galfimbul

avatar Galfimbul


Берега
> Год выпуска: 2013> Производство: «Кинокомпания «Русское»»> Жанр: Мелодрама> Продолжительность: ~ 45 мин.> Субтитры: Отсутствуют
> Режиссер: Кира Ангелина
> В ролях: Анастасия Пронина, Кирилл Запорожский, Ирина Розанова, Людмила Полякова, Екатерина Дубакина, Сергей Шеховцов, Ольга Сухарева, Наталья Карпунина, Юлия Ковалёва, Руслан Ягудин, Тимофей Каратаев, Виктор Рябов, Захар Кабанов, Артем Башенин и др.
> Описание: Таня, простая девушка из маленькой деревни, учится в выпускном классе. После смерти родителей ее в строгости воспитывает бабушка, и Таня мечтает вырваться из-под опеки и ощутить вкус свободы.Но первая любовь героини оказывается совсем не такой, как ей мечталось. Девушка беременеет от своего одноклассника Сергея, и вскоре оказывается, что никому, кроме нее самой, ребенок не нужен.Несмотря на давление несостоявшейся свекрови, Таня, уже приехав в больницу, всё же решает оставить ребенка. К несчастью, вырываясь от матери Сергея, девушка падает с лестницы..Приговор врачей оказывается страшным: у Тани больше никогда не будет детей.Вопреки всему, героиня решает начать жизнь сначала..



> Релиз группы
> > Семпл > Кино-Театр
> Качество:HDTVRip [Источник HDTVRip 720pi]> Формат: AVI> Видео кодек: XviD> Аудио кодек: AC3> Видео: 720x400 (1.80:1), 25 fps, XviD build 73 ~1500 kbps avg, 0.21 bit/pixel> Аудио: 48 kHz, AC3 Dolby Digital, 2/0 (L,R) ch, ~192.00 kbps avg
General
Complete name                       : D:\Берега\Berega.s01e01.2013.HDTVRip.RG.Russkie.serialy.avi
Format                              : AVI
Format/Info                         : Audio Video Interleave
File size                           : 1.06 GiB
Duration                            : 1h 29mn
Overall bit rate                    : 1 702 Kbps
Writing application                 : VirtualDubMod 1.5.10.3 | www.virtualdub-fr.org || (build 2550/release)
Writing library                     : VirtualDubMod build 2550/release

Video
ID                                  : 0
Format                              : MPEG-4 Visual
Format profile                      : Advanced [email protected]
Format settings, BVOP               : 2
Format settings, QPel               : No
Format settings, GMC                : No warppoints
Format settings, Matrix             : Custom
Codec ID                            : XVID
Codec ID/Hint                       : XviD
Duration                            : 1h 29mn
Bit rate                            : 1 500 Kbps
Width                               : 720 pixels
Height                              : 400 pixels
Display aspect ratio                : 16:9
Frame rate                          : 25.000 fps
Color space                         : YUV
Chroma subsampling                  : 4:2:0
Bit depth                           : 8 bits
Scan type                           : Progressive
Compression mode                    : Lossy
Bits/(Pixel*Frame)                  : 0.208
Stream size                         : 959 MiB (88%)
Writing library                     : XviD 73

Audio
ID                                  : 1
Format                              : AC-3
Format/Info                         : Audio Coding 3
Mode extension                      : CM (complete main)
Format settings, Endianness         : Big
Codec ID                            : 2000
Duration                            : 1h 29mn
Bit rate mode                       : Constant
Bit rate                            : 192 Kbps
Channel(s)                          : 2 channels
Channel positions                   : Front: L R
Sampling rate                       : 48.0 KHz
Bit depth                           : 16 bits
Compression mode                    : Lossy
Stream size                         : 123 MiB (11%)
Alignment                           : Split accross interleaves
Interleave, duration                : 40 ms (1.00 video frame)
Interleave, preload duration        : 500 ms
<div class="sp-wrap">
<div class="sp-head folded">Сравнение
</div>
<div class="sp-body">Сравнение с этой раздачей ...4624316
http://screenshotcomparison.com/comparison/115765/picture:9</div>
</div>

Трекер:  [ 01-Июл-2018 18:42 ]

  

Скачать .torrent

Размер .torrent файла 11 KB


Размер: 2.11 GB
Хэш (hash) релиза: 284a356c1ba6e0577ae8b6ec57385fdf9d6933e0
Подписка на обновления:

Еще никто не оставлял запись к записи скачать торрент Берега Сезон: 1 . Будь первым!

!Обратная связь