Alien Covenant 2017 1080p HDRip x265 HETeam | Space Hulk Ascension Edition CODEX | Handbook on the Physics and Chemistry of Rare Earths Volume 11 Two-Hundred-Year Impact of Rare Earths on Science

Скачать через торрент [iPad] Пятьдесят оттенков свободы Fifty Shades Freed бесплатно русская версия torrent активатор

Статистика раздачи
Размер:  1.9 GB   |    Зарегистрирован:  15 дней   |    .torrent скачан:  16 раз   |   
Раздают:  1  
   
загрузка...
 
Автор Сообщение

Galfimbul

avatar Galfimbul


Пятьдесят оттенков свободы / Fifty Shades Freed

(Unrated Edition)

«Миссис Грей ждёт вас»

5.297 / 10 4.40 / 10
Год выпуска: 2018
Страна: США
Жанр: Триллер, драма, мелодрама
Продолжительность: 01:50:18

Перевод: Дублированный (iTunes)
Оригинальная аудиодорожка: Есть
Cубтитры: Русские форсированные, Русские, Английские
Режиссёр: Джеймс Фоули
Сценарий: Ниал Леонард, Э.Л. Джеймс
Продюсер: Дэна Брунетти, Майкл Де Лука, Э.Л. Джеймс
Оператор: Джон Шварцман
Композитор: Дэнни Элфман
Художник: Нельсон Коутс, Питер Боднарус, Крэйг Хемфрис
Монтаж: Дэвид С. Кларк, Ричард Фрэнсис-Брюс, Дебра Нил Фишер
В ролях: Дакота Джонсон, Джейми Дорнан, Эрик Джонсон, Элоиза Мамфорд, Рита Ора, Люк Граймс, Виктор Расук, Макс Мартини, Дженнифер Эль, Марша Гей Харден

Бюджет: $55 000 000
Сборы в США: $100 407 760
Сборы в мире: + $267 900 000 = $368 307 760
Сборы в России: $13 530 787

Мировая премьера: 6 февраля 2018
Премьера (РФ): 8 февраля 2018, «UPI»

Цифровой релиз: 5 апреля 2018, «Universal»

Описание: Кристиан и Анастейша поженились и живут в своё удовольствие, наслаждаясь обществом друг друга. Однако жизнь новоиспечённой миссис Грей находится в опасности, поскольку объявляется недруг, который собирается мстить, используя свою богатую фантазию. Призраки прошлого Кристиана вновь вернулись, а тучи над супругами сгущаются всё сильнее.
Качество исходника: Blu-Ray (BlueBird)
Качество: BDRip
Тип: SD (576p)
Контейнер: M4V
Видео: H.264, 1024x432, 2.40:1, 2 200 Kbps, 23.976 (24000/1001) fps

Аудио 1: Русский/Дублированный (iTunes), AAC / 2.0 / 128 Kbps / 48.0 KHz
Аудио 2: Английский/Оригинальная дорожка , AAC / 2.0 / 128 Kbps / 48.0 KHz

Субтитры 1: Русские форсированные
Субтитры 2: Русские полные
Субтитры 3: Английские полные
Sort Name: Fifty Shades Freed
XID: Apple:vendor_id:2018-893488
contentID: 1340577415
Copyright: © 2018 Universal Studios. All Rights Reserved.
Screenwriters: Ниал Леонард, Э.Л. Джеймс
Producers: Дэна Брунетти, Майкл Де Лука, Э.Л. Джеймс
Director: Джеймс Фоули
Cast: Дакота Джонсон, Джейми Дорнан, Эрик Джонсон, Элоиза Мамфорд, Рита Ора, Люк Граймс, Виктор Расук, Макс Мартини, Дженнифер Эль, Марша Гей Харден
Studio: Universal Pictures
Rating: 5
Long Description: Кристиан и Анастейша поженились и живут в своё удовольствие, наслаждаясь обществом друг друга. Однако жизнь новоиспечённой миссис Грей находится в опасности, поскольку объявляется недруг, который собирается мстить, используя свою богатую фантазию. Призраки прошлого Кристиана вновь вернулись, а тучи над супругами сгущаются всё сильнее.
Description: Кристиан и Анастейша поженились и живут в своё удовольствие, наслаждаясь обществом друг друга. Однако жизнь новоиспечённой миссис Грей находится в опасности, поскольку объявляется недруг, который собирается мстить, используя свою богатую фантазию. Призраки прошлого Кристиана вновь вернулись, а тучи над супругами сгущаются всё сильнее.
Release Date: 2018-02-06T08:00:00Z
Genre: Romance
Artist: James Foley
Name: Fifty Shades Freed
General
Complete name                            : /Users/imac/HandBrake/Fifty.Shades.Freed.(SD).(pk).m4v
Format                                   : MPEG-4
Codec ID                                 : M4V  (M4V /M4A /mp42/isom)
File size                                : 1.90 GiB
Duration                                 : 1h 50mn
Overall bit rate mode                    : Variable
Overall bit rate                         : 2 461 Kbps
Movie name                               : Fifty Shades Freed
Performer                                : James Foley
Director                                 : Джеймс Фоули
Actor                                    : Дакота Джонсон / Джейми Дорнан / Эрик Джонсон / Элоиза Мамфорд / Рита Ора / Люк Граймс / Виктор Расук / Макс Мартини / Дженнифер Эль / Марша Гей Харден
Screenplay by                            : Ниал Леонард / Э.Л. Джеймс
Producer                                 : Дэна Брунетти / Майкл Де Лука / Э.Л. Джеймс
Production studio                        : Universal Pictures
Genre                                    : Romance
ContentType                              : Short Film
Description                              : Кристиан и Анастейша поженились и живут в своё удовольствие, наслаждаясь обществом друг друга. Однако жизнь новоиспечённой миссис Грей находится в опасности, поскольку объявляется недруг, который собирается мстить, используя свою богатую фантазию. Призраки прошлого Кристиана вновь вернулись, а тучи над супругами сгущаются всё сильнее.
Recorded date                            : UTC 2018-02-06 08:00:00
Encoded date                             : UTC 2018-07-01 12:45:12
Tagged date                              : UTC 2018-07-01 12:46:22
Copyright                                : © 2018 Universal Studios. All Rights Reserved.
Cover                                    : Yes
Rating                                   : None
Title/Sort                               : Fifty Shades Freed
LongDescription                          : Кристиан и Анастейша поженились и живут в своё удовольствие, наслаждаясь обществом друг друга. Однако жизнь новоиспечённой миссис Грей находится в опасности, поскольку объявляется недруг, который собирается мстить, используя свою богатую фантазию. Призраки прошлого Кристиана вновь вернулись, а тучи над супругами сгущаются всё сильнее.
AppleStoreCatalogID                      : 1340577415
Vendor                                   : Apple:vendor_id:2018-893488
ContentRating                            : mpaa|R|400|

Video #1
ID                                       : 1
Format                                   : AVC
Format/Info                              : Advanced Video Codec
Format profile                           : [email protected]
Format settings                          : CABAC / 9 Ref Frames
Format settings, CABAC                   : Yes
Format settings, ReFrames                : 9 frames
Codec ID                                 : avc1
Codec ID/Info                            : Advanced Video Coding
Duration                                 : 1h 50mn
Source duration                          : 1h 50mn
Bit rate                                 : 2 200 Kbps
Width                                    : 1 024 pixels
Height                                   : 432 pixels
Display aspect ratio                     : 2.40:1
Frame rate mode                          : Variable
Frame rate                               : 23.976 (24000/1001) fps
Minimum frame rate                       : 23.974 fps
Maximum frame rate                       : 23.981 fps
Color space                              : YUV
Chroma subsampling                       : 4:2:0
Bit depth                                : 8 bits
Scan type                                : Progressive
Bits/(Pixel*Frame)                       : 0.207
Stream size                              : 1.69 GiB (89%)
Source stream size                       : 1.69 GiB (89%)
Title                                    : Main Program
Writing library                          : x264 core 155 r2893 b00bcaf
Encoding settings                        : cabac=1 / ref=9 / deblock=1:0:0 / analyse=0x3:0x113 / me=umh / subme=9 / psy=1 / psy_rd=1.00:0.00 / mixed_ref=1 / me_range=32 / chroma_me=1 / trellis=1 / 8x8dct=1 / cqm=0 / deadzone=21,11 / fast_pskip=1 / chroma_qp_offset=-2 / threads=13 / lookahead_threads=1 / sliced_threads=0 / nr=0 / decimate=1 / interlaced=0 / bluray_compat=0 / constrained_intra=0 / bframes=6 / b_pyramid=2 / b_adapt=2 / b_bias=0 / direct=1 / weightb=1 / open_gop=0 / weightp=2 / keyint=240 / keyint_min=24 / scenecut=40 / intra_refresh=0 / rc_lookahead=40 / rc=2pass / mbtree=1 / bitrate=2200 / ratetol=1.0 / qcomp=0.60 / qpmin=0 / qpmax=69 / qpstep=4 / cplxblur=20.0 / qblur=0.5 / ip_ratio=1.40 / aq=1:1.00
Language                                 : English
Encoded date                             : UTC 2018-07-01 12:45:12
Tagged date                              : UTC 2018-07-01 12:45:17
Color range                              : Limited
Color primaries                          : BT.709
Transfer characteristics                 : BT.709
Matrix coefficients                      : BT.709
Menus                                    : 7,8

Video #2
ID                                       : 8
Format                                   : JPEG
Codec ID                                 : jpeg
Duration                                 : 1h 50mn
Bit rate mode                            : Variable
Bit rate                                 : 998 bps
Width                                    : 640 pixels
Height                                   : 270 pixels
Display aspect ratio                     : 2.40:1
Frame rate mode                          : Variable
Frame rate                               : 0.003 fps
Minimum frame rate                       : 0.002 fps
Maximum frame rate                       : 0.005 fps
Color space                              : YUV
Chroma subsampling                       : 4:2:0
Bit depth                                : 8 bits
Compression mode                         : Lossy
Bits/(Pixel*Frame)                       : 1.925
Stream size                              : 812 KiB (0%)
Title                                    : Chapter Images
Language                                 : English
Default                                  : No
Encoded date                             : UTC 2018-07-01 12:45:26
Tagged date                              : UTC 2018-07-01 12:45:27
Menu For                                 : 1
ColorSpace_ICC                           : RGB

Audio #1
ID                                       : 2
Format                                   : AAC
Format/Info                              : Advanced Audio Codec
Format profile                           : LC
Codec ID                                 : mp4a-40-2
Duration                                 : 1h 50mn
Source duration                          : 1h 50mn
Bit rate mode                            : Variable
Bit rate                                 : 126 Kbps
Maximum bit rate                         : 196 Kbps
Channel(s)                               : 2 channels
Channel positions                        : Front: L R
Sampling rate                            : 48.0 KHz
Frame rate                               : 46.875 fps (1024 SPF)
Compression mode                         : Lossy
Stream size                              : 99.3 MiB (5%)
Source stream size                       : 99.3 MiB (5%)
Title                                    : Russian Stereo
Language                                 : Russian
Default                                  : Yes
Alternate group                          : 1
Encoded date                             : UTC 2018-07-01 12:45:12
Tagged date                              : UTC 2018-07-01 12:45:21
Subtitles                                : 4,5

Audio #2
ID                                       : 3
Format                                   : AAC
Format/Info                              : Advanced Audio Codec
Format profile                           : LC
Codec ID                                 : mp4a-40-2
Duration                                 : 1h 50mn
Source duration                          : 1h 50mn
Bit rate mode                            : Variable
Bit rate                                 : 126 Kbps
Maximum bit rate                         : 187 Kbps
Channel(s)                               : 2 channels
Channel positions                        : Front: L R
Sampling rate                            : 48.0 KHz
Frame rate                               : 46.875 fps (1024 SPF)
Compression mode                         : Lossy
Stream size                              : 99.1 MiB (5%)
Source stream size                       : 99.1 MiB (5%)
Title                                    : English Stereo
Language                                 : English
Default                                  : No
Alternate group                          : 1
Encoded date                             : UTC 2018-07-01 12:45:12
Tagged date                              : UTC 2018-07-01 12:45:21

Text #1
ID                                       : 4
Format                                   : Timed Text
Muxing mode                              : sbtl
Codec ID                                 : tx3g
Duration                                 : 1h 42mn
Bit rate mode                            : Variable
Bit rate                                 : 1 bps
Stream size                              : 1.04 KiB (0%)
Title                                    : Russian forced
Language                                 : Russian
Default                                  : Yes
Forced                                   : Yes
Alternate group                          : 2
Encoded date                             : UTC 2018-07-01 12:45:12
Tagged date                              : UTC 2018-07-01 12:45:16
Subtitles For                            : 2
Full Alternative                         : 5

Text #2
ID                                       : 5
Format                                   : Timed Text
Muxing mode                              : sbtl
Codec ID                                 : tx3g
Duration                                 : 1h 44mn
Bit rate mode                            : Variable
Bit rate                                 : 71 bps
Stream size                              : 54.1 KiB (0%)
Title                                    : Russian full
Language                                 : Russian
Default                                  : No
Forced                                   : No
Alternate group                          : 2
Encoded date                             : UTC 2018-07-01 12:45:12
Tagged date                              : UTC 2018-07-01 12:45:16
Subtitles For                            : 2
Forced Alternative                       : 4

Text #3
ID                                       : 6
Format                                   : Timed Text
Muxing mode                              : sbtl
Codec ID                                 : tx3g
Duration                                 : 1h 44mn
Bit rate mode                            : Variable
Bit rate                                 : 58 bps
Stream size                              : 44.2 KiB (0%)
Title                                    : English full
Language                                 : English
Default                                  : No
Forced                                   : No
Alternate group                          : 2
Encoded date                             : UTC 2018-07-01 12:45:12
Tagged date                              : UTC 2018-07-01 12:45:16

Menu #1
00:00:00.000                             : 00:00:00.000
00:05:32.958                             : 00:05:32.958
00:13:26.264                             : 00:13:26.264
00:21:26.160                             : 00:21:26.160
00:26:51.860                             : 00:26:51.860
00:30:39.546                             : 00:30:39.546
00:34:15.428                             : 00:34:15.428
00:39:07.345                             : 00:39:07.345
00:43:25.186                             : 00:43:25.186
00:49:14.660                             : 00:49:14.660
00:53:16.402                             : 00:53:16.360
00:57:47.047                             : 00:57:47.005
01:01:28.310                             : 01:01:28.268
01:07:16.574                             : 01:07:16.532
01:14:46.691                             : 01:14:46.649
01:20:35.331                             : 01:20:35.330
01:28:10.410                             : 01:28:10.368
01:33:12.754                             : 01:33:12.712
01:37:56.996                             : 01:37:56.996
01:43:46.512                             : 01:43:46.428

Menu #2
ID                                       : 7
Codec ID                                 : text
Duration                                 : 1h 50mn
Language                                 : English
Encoded date                             : UTC 2018-07-01 12:45:21
Tagged date                              : UTC 2018-07-01 12:45:21
Bit rate mode                            : CBR
Menu For                                 : 1
00:00:00.000                             : 00:00:00.000
00:05:32.958                             : 00:05:32.958
00:13:26.264                             : 00:13:26.264
00:21:26.160                             : 00:21:26.160
00:26:51.860                             : 00:26:51.860
00:30:39.546                             : 00:30:39.546
00:34:15.428                             : 00:34:15.428
00:39:07.345                             : 00:39:07.345
00:43:25.186                             : 00:43:25.186
00:49:14.660                             : 00:49:14.660
00:53:16.402                             : 00:53:16.360
00:57:47.047                             : 00:57:47.005
01:01:28.310                             : 01:01:28.268
01:07:16.574                             : 01:07:16.532
01:14:46.691                             : 01:14:46.649
01:20:35.331                             : 01:20:35.330
01:28:10.410                             : 01:28:10.368
01:33:12.754                             : 01:33:12.712
01:37:56.996                             : 01:37:56.996
01:43:46.512                             : 01:43:46.428
x264 [info]: frame I:1514  Avg QP:13.22  size: 84811
x264 [info]: frame P:36381 Avg QP:15.80  size: 25614
x264 [info]: frame B:120782 Avg QP:18.15  size:  6289
x264 [info]: consecutive B-frames:  2.7%  3.0%  9.9% 22.7% 17.7% 36.5%  7.5%
x264 [info]: mb I  I16..4:  8.7% 66.9% 24.4%
x264 [info]: mb P  I16..4:  2.8%  6.8%  2.6%  P16..4: 35.8% 28.9% 17.9%  0.0%  0.0%    skip: 5.2%
x264 [info]: mb B  I16..4:  0.3%  0.5%  0.2%  B16..8: 40.0% 11.4%  3.2%  direct: 4.0%  skip:40.3%  L0:46.3% L1:41.8% BI:12.0%
x264 [info]: 8x8 transform intra:57.0% inter:67.9%
x264 [info]: coded y,uvDC,uvAC intra: 78.6% 92.5% 80.2% inter: 25.7% 27.6% 8.8%
x264 [info]: i16 v,h,dc,p: 73%  6%  4% 17%
x264 [info]: i8 v,h,dc,ddl,ddr,vr,hd,vl,hu: 13%  9%  4%  9% 13% 14% 13% 12% 12%
x264 [info]: i4 v,h,dc,ddl,ddr,vr,hd,vl,hu: 18%  9%  2%  8% 13% 14% 13% 11% 12%
x264 [info]: i8c dc,h,v,p: 44% 21% 19% 16%
x264 [info]: Weighted P-Frames: Y:3.0% UV:0.8%
x264 [info]: ref P L0: 48.1% 11.0% 17.1%  6.8%  5.5%  3.9%  3.7%  1.9%  2.0%  0.1%  0.0%
x264 [info]: ref B L0: 69.2% 13.4%  7.1%  3.9%  2.5%  2.2%  1.4%  0.4%
x264 [info]: ref B L1: 93.4%  6.6%
x264 [info]: kb/s:2199.88

Релиз подготовлен для просмотра на Apple TV, iPad, iPhone, iPod Touch.
Для просмотра данного релиза на компьютере с ОС Windows рекомендуется использовать VLC media player

Трекер:  [ 01-Июл-2018 16:06 ]

  

Скачать .torrent

Размер .torrent файла 38 KB


Размер: 1.9 GB
Хэш (hash) релиза: 5d23a1c0363f1709f5dc60bf385f90693909dbbe

Еще никто не оставлял запись к записи скачать торрент [iPad] Пятьдесят оттенков свободы Fifty Shades Freed . Будь первым!

!Обратная связь