EditPlus 5 0 Build 733 + key | Download mp3 | Watch Movie

Скачать через торрент Невидимый гость Contratiempo бесплатно русская версия torrent активатор

Статистика раздачи
Размер:  1.15 GB   |    Зарегистрирован:  15 дней   |    .torrent скачан:  18 раз   |   
Раздают:  1  
   
загрузка...
 
Автор Сообщение

Galfimbul

avatar Galfimbul


Невидимый гость / Contratiempo
«У каждой истории две стороны. Правда - только одна»

7.639 / 10 8.10 / 10
Год выпуска: 2016
Страна: Испания
Жанр: Триллер, криминал, детектив
Продолжительность: 01:46:02

Перевод: Дублированный (iTunes)
Оригинальная аудиодорожка: Есть
Cубтитры: Русские, Английские
Режиссёр: Ориол Паоло
Сценарий: Ориол Паоло
Продюсер: Мерседес Гамеро, Адриан Герра, Микель Лехарса
Оператор: Чави Хименес
Композитор: Фернандо Веласкес
Художник: Бальтер Гальярт, Eva Torres, Miguel Cervera
Монтаж: Хауме Марти
В ролях: Марио Касас, Ана Вахенер, Хосе Коронадо, Барбара Ленни, Франсеск Орелья, Пако Тоус, Давид Сельвас, Иньиго Гастези, Сан Еламос, Манель Дуэсо

Бюджет: €4 000 000
Сборы в России: $235 027

Мировая премьера: 23 сентября 2016
Премьера (РФ): 31 мая 2018, «ПРОвзгляд»

Цифровой релиз: 25 июня 2018, «НД Плэй»

Описание: Молодого бизнесмена Адриана Дориа обвиняют в убийстве любовницы, и он решает воспользоваться услугами Вирджинии Гудман, лучшего в стране адвоката. Накануне судебного заседания они встречаются для разработки стратегии защиты. Но чтобы выяснить правду, Вирджинии придется пойти на неожиданные меры.
Качество исходника: Blu-Ray (BlueBird)
Качество: BDRip
Тип: SD (480p)
Контейнер: M4V
Видео: H.264, 640x356 анаморф 852х356, 2.40:1, 1 300 Kbps, 23.976 (24000/1001) fps

Аудио 1: Русский/Дублированный (iTunes), AAC / 2.0 / 128 Kbps / 48.0 KHz
Аудио 2: Испанский/Оригинальная дорожка , AAC / 2.0 / 128 Kbps / 48.0 KHz

Субтитры 1: Русские полные
Субтитры 2: Английские полные
Sort Name: Contratiempo
XID: Apple:vendor_id:2016-959365
contentID: 1190143686
Copyright: © 2016 Warner Bros. Entertainment. All rights reserved.
Screenwriters: Ориол Паоло
Producers: Мерседес Гамеро, Адриан Герра, Микель Лехарса
Director: Ориол Паоло
Cast: Марио Касас, Ана Вахенер, Хосе Коронадо, Барбара Ленни, Франсеск Орелья, Пако Тоус, Давид Сельвас, Иньиго Гастези, Сан Еламос, Манель Дуэсо
Studio: Warnes Bros
Rating: 0
Long Description: В один прекрасный день молодой бизнесмен Эдриан Дориа просыпается в закрытом изнутри номере отеля рядом с бездыханным телом своей любовницы. Его обвиняют в убийстве, но он, не считая себя виновным, решает воспользоваться услугами Вирджинии Гудман, лучшего в стране специалиста по выходу из самых сложных ситуаций. В течение одной ночи консультант и её клиент будут работать, чтобы найти разумное опровержение обвинению, и, тем самым, высвободить его из тюрьмы.
Description: В один прекрасный день молодой бизнесмен Эдриан Дориа просыпается в закрытом изнутри номере отеля рядом с бездыханным телом своей любовницы. Его обвиняют в убийстве, но он, не считая себя виновным, решает воспользоваться услугами Вирджинии Гудман, лучшего в стране специалиста по выходу из самых сложных ситуаций...
Release Date: 2016-09-23T08:00:00Z
Genre: Thriller
Artist: Oriol Paulo
Name: Contratiempo (2017)
General
Complete name                            : /Users/imac/HandBrake/Contratiempo.(480p).(pk).m4v
Format                                   : MPEG-4
Codec ID                                 : M4V  (M4V /M4A /mp42/isom)
File size                                : 1.15 GiB
Duration                                 : 1h 46mn
Overall bit rate mode                    : Variable
Overall bit rate                         : 1 557 Kbps
Movie name                               : Contratiempo (2017)
Performer                                : Oriol Paulo
Director                                 : Ориол Паоло
Actor                                    : Марио Касас / Ана Вахенер / Хосе Коронадо / Барбара Ленни / Франсеск Орелья / Пако Тоус / Давид Сельвас / Иньиго Гастези / Сан Еламос / Манель Дуэсо
Screenplay by                            : Ориол Паоло
Producer                                 : Мерседес Гамеро / Адриан Герра / Микель Лехарса
Production studio                        : Warnes Bros
Genre                                    : Thriller
ContentType                              : Short Film
Description                              : В один прекрасный день молодой бизнесмен Эдриан Дориа просыпается в закрытом изнутри номере отеля рядом с бездыханным телом своей любовницы. Его обвиняют в убийстве, но он, не считая себя виновным, решает воспользоваться услугами Вирджинии Гудман, лучшего в стране специалиста по выходу из самых сложных ситуаций...
Recorded date                            : UTC 2016-09-23 08:00:00
Encoded date                             : UTC 2018-07-01 11:59:28
Tagged date                              : UTC 2018-07-01 12:00:45
Copyright                                : © 2016 Warner Bros. Entertainment. All rights reserved.
Cover                                    : Yes
Rating                                   : None
Title/Sort                               : Contratiempo
LongDescription                          : В один прекрасный день молодой бизнесмен Эдриан Дориа просыпается в закрытом изнутри номере отеля рядом с бездыханным телом своей любовницы. Его обвиняют в убийстве, но он, не считая себя виновным, решает воспользоваться услугами Вирджинии Гудман, лучшего в стране специалиста по выходу из самых сложных ситуаций. В течение одной ночи консультант и её клиент будут работать, чтобы найти разумное опровержение обвинению, и, тем самым, высвободить его из тюрьмы.
AppleStoreCatalogID                      : 1190143686
Vendor                                   : Apple:vendor_id:2016-959365
ContentRating                            : mpaa|Unrated|???|

Video #1
ID                                       : 1
Format                                   : AVC
Format/Info                              : Advanced Video Codec
Format profile                           : [email protected]
Format settings                          : 2 Ref Frames
Format settings, CABAC                   : No
Format settings, ReFrames                : 2 frames
Codec ID                                 : avc1
Codec ID/Info                            : Advanced Video Coding
Duration                                 : 1h 46mn
Bit rate                                 : 1 300 Kbps
Width                                    : 640 pixels
Height                                   : 356 pixels
Display aspect ratio                     : 2.40:1
Frame rate mode                          : Variable
Frame rate                               : 23.976 fps
Minimum frame rate                       : 23.810 fps
Maximum frame rate                       : 23.981 fps
Color space                              : YUV
Chroma subsampling                       : 4:2:0
Bit depth                                : 8 bits
Scan type                                : Progressive
Bits/(Pixel*Frame)                       : 0.238
Stream size                              : 985 MiB (83%)
Title                                    : Main Program
Writing library                          : x264 core 155 r2901 7d0ff22
Encoding settings                        : cabac=0 / ref=2 / deblock=1:0:0 / analyse=0x1:0x111 / me=umh / subme=6 / psy=1 / psy_rd=1.00:0.00 / mixed_ref=1 / me_range=16 / chroma_me=1 / trellis=0 / 8x8dct=0 / cqm=0 / deadzone=21,11 / fast_pskip=1 / chroma_qp_offset=-2 / threads=11 / lookahead_threads=1 / sliced_threads=0 / nr=0 / decimate=1 / interlaced=0 / bluray_compat=0 / constrained_intra=0 / bframes=0 / weightp=0 / keyint=240 / keyint_min=24 / scenecut=40 / intra_refresh=0 / rc_lookahead=40 / rc=2pass / mbtree=1 / bitrate=1300 / ratetol=1.0 / qcomp=0.60 / qpmin=0 / qpmax=69 / qpstep=4 / cplxblur=20.0 / qblur=0.5 / vbv_maxrate=5000 / vbv_bufsize=5000 / nal_hrd=none / filler=0 / ip_ratio=1.40 / aq=1:1.00
Language                                 : Spanish
Encoded date                             : UTC 2018-07-01 11:59:28
Tagged date                              : UTC 2018-07-01 11:59:33
Color range                              : Limited
Color primaries                          : BT.709
Transfer characteristics                 : BT.709
Matrix coefficients                      : BT.709
Menus                                    : 6,7

Video #2
ID                                       : 7
Format                                   : JPEG
Codec ID                                 : jpeg
Duration                                 : 1h 46mn
Bit rate mode                            : Variable
Bit rate                                 : 364 bps
Width                                    : 640 pixels
Height                                   : 267 pixels
Display aspect ratio                     : 2.40:1
Frame rate mode                          : Variable
Frame rate                               : 0.002 fps
Minimum frame rate                       : 0.001 fps
Maximum frame rate                       : 0.004 fps
Color space                              : YUV
Chroma subsampling                       : 4:2:0
Bit depth                                : 8 bits
Compression mode                         : Lossy
Bits/(Pixel*Frame)                       : 1.065
Stream size                              : 267 KiB (0%)
Title                                    : Chapter Images
Language                                 : Spanish
Default                                  : No
Encoded date                             : UTC 2018-07-01 11:59:53
Tagged date                              : UTC 2018-07-01 11:59:53
Menu For                                 : 1
ColorSpace_ICC                           : RGB

Audio #1
ID                                       : 2
Format                                   : AAC
Format/Info                              : Advanced Audio Codec
Format profile                           : LC
Codec ID                                 : mp4a-40-2
Duration                                 : 1h 46mn
Source duration                          : 1h 46mn
Bit rate mode                            : Variable
Bit rate                                 : 125 Kbps
Maximum bit rate                         : 186 Kbps
Channel(s)                               : 2 channels
Channel positions                        : Front: L R
Sampling rate                            : 48.0 KHz
Frame rate                               : 46.875 fps (1024 SPF)
Compression mode                         : Lossy
Stream size                              : 95.1 MiB (8%)
Source stream size                       : 95.1 MiB (8%)
Title                                    : Russian Stereo
Language                                 : Russian
Default                                  : Yes
Alternate group                          : 1
Encoded date                             : UTC 2018-07-01 11:59:28
Tagged date                              : UTC 2018-07-01 11:59:51

Audio #2
ID                                       : 3
Format                                   : AAC
Format/Info                              : Advanced Audio Codec
Format profile                           : LC
Codec ID                                 : mp4a-40-2
Duration                                 : 1h 46mn
Source duration                          : 1h 46mn
Bit rate mode                            : Variable
Bit rate                                 : 125 Kbps
Maximum bit rate                         : 202 Kbps
Channel(s)                               : 2 channels
Channel positions                        : Front: L R
Sampling rate                            : 48.0 KHz
Frame rate                               : 46.875 fps (1024 SPF)
Compression mode                         : Lossy
Stream size                              : 95.2 MiB (8%)
Source stream size                       : 95.2 MiB (8%)
Title                                    : Spanish Stereo
Language                                 : Spanish
Default                                  : No
Alternate group                          : 1
Encoded date                             : UTC 2018-07-01 11:59:28
Tagged date                              : UTC 2018-07-01 11:59:51

Text #1
ID                                       : 4
Format                                   : Timed Text
Muxing mode                              : sbtl
Codec ID                                 : tx3g
Duration                                 : 1h 41mn
Bit rate mode                            : Variable
Bit rate                                 : 118 bps
Stream size                              : 87.6 KiB (0%)
Title                                    : Russian full
Language                                 : Russian
Default                                  : Yes
Forced                                   : No
Alternate group                          : 2
Encoded date                             : UTC 2018-07-01 11:59:28
Tagged date                              : UTC 2018-07-01 11:59:50

Text #2
ID                                       : 5
Format                                   : Timed Text
Muxing mode                              : sbtl
Codec ID                                 : tx3g
Duration                                 : 1h 41mn
Bit rate mode                            : Variable
Bit rate                                 : 63 bps
Stream size                              : 46.9 KiB (0%)
Title                                    : English full
Language                                 : English
Default                                  : No
Forced                                   : No
Alternate group                          : 2
Encoded date                             : UTC 2018-07-01 11:59:28
Tagged date                              : UTC 2018-07-01 11:59:50

Menu #1
00:00:00.000                             : 00:00:00.000
00:08:11.326                             : 00:08:11.292
00:16:51.598                             : 00:16:51.583
00:24:57.459                             : 00:24:57.458
00:33:23.757                             : 00:33:23.750
00:42:03.903                             : 00:42:03.875
00:50:58.522                             : 00:50:58.500
01:00:14.870                             : 01:00:14.833
01:08:56.728                             : 01:08:56.708
01:18:00.772                             : 01:18:00.750
01:22:04.975                             : 01:22:04.958
01:30:27.395                             : 01:30:27.375

Menu #2
ID                                       : 6
Codec ID                                 : text
Duration                                 : 1h 46mn
Language                                 : Spanish
Encoded date                             : UTC 2018-07-01 11:59:51
Tagged date                              : UTC 2018-07-01 11:59:51
Bit rate mode                            : CBR
Menu For                                 : 1
00:00:00.000                             : 00:00:00.000
00:08:11.326                             : 00:08:11.292
00:16:51.598                             : 00:16:51.583
00:24:57.459                             : 00:24:57.458
00:33:23.757                             : 00:33:23.750
00:42:03.903                             : 00:42:03.875
00:50:58.522                             : 00:50:58.500
01:00:14.870                             : 01:00:14.833
01:08:56.728                             : 01:08:56.708
01:18:00.772                             : 01:18:00.750
01:22:04.975                             : 01:22:04.958
01:30:27.395                             : 01:30:27.375
x264 [info]: frame I:2047  Avg QP:10.55  size: 32749
x264 [info]: frame P:150513 Avg QP:13.47  size:  6419
x264 [info]: mb I  I16..4: 23.4%  0.0% 76.6%
x264 [info]: mb P  I16..4:  1.1%  0.0%  2.2%  P16..4: 38.6% 22.9% 10.6%  0.0%  0.0%    skip:24.6%
x264 [info]: coded y,uvDC,uvAC intra: 64.0% 69.3% 58.4% inter: 26.4% 12.9% 5.1%
x264 [info]: i16 v,h,dc,p: 63% 14% 10% 13%
x264 [info]: i4 v,h,dc,ddl,ddr,vr,hd,vl,hu: 42% 13% 14%  5%  6%  7%  5%  6%  4%
x264 [info]: i8c dc,h,v,p: 56% 13% 26%  5%
x264 [info]: ref P L0: 71.0% 29.0%
x264 [info]: kb/s:1299.05

Релиз подготовлен для просмотра на Apple TV, iPad, iPhone, iPod Touch.
Для просмотра данного релиза на компьютере с ОС Windows рекомендуется использовать VLC media player

Трекер:  [ 01-Июл-2018 15:36 ]

  

Скачать .torrent

Размер .torrent файла 23 KB


Размер: 1.15 GB
Хэш (hash) релиза: b6dba2705f7a35b54301b571ec6172a1d295f3d0

Еще никто не оставлял запись к записи скачать торрент Невидимый гость Contratiempo . Будь первым!

!Обратная связь