Astronomy | Gossip Girl Thailand | Sound clips

Скачать через торрент [iPad] Невидимый гость Contratiempo бесплатно русская версия torrent активатор

Статистика раздачи
Размер:  1.82 GB   |    Зарегистрирован:  19 дней   |    .torrent скачан:  19 раз   |   
Раздают:  1  
   
загрузка...
 
Автор Сообщение

Galfimbul

avatar Galfimbul


Невидимый гость / Contratiempo
«У каждой истории две стороны. Правда - только одна»

7.639 / 10 8.10 / 10
Год выпуска: 2016
Страна: Испания
Жанр: Триллер, криминал, детектив
Продолжительность: 01:46:02

Перевод: Дублированный (iTunes)
Оригинальная аудиодорожка: Есть
Cубтитры: Русские, Английские
Режиссёр: Ориол Паоло
Сценарий: Ориол Паоло
Продюсер: Мерседес Гамеро, Адриан Герра, Микель Лехарса
Оператор: Чави Хименес
Композитор: Фернандо Веласкес
Художник: Бальтер Гальярт, Eva Torres, Miguel Cervera
Монтаж: Хауме Марти
В ролях: Марио Касас, Ана Вахенер, Хосе Коронадо, Барбара Ленни, Франсеск Орелья, Пако Тоус, Давид Сельвас, Иньиго Гастези, Сан Еламос, Манель Дуэсо

Бюджет: €4 000 000
Сборы в России: $235 027

Мировая премьера: 23 сентября 2016
Премьера (РФ): 31 мая 2018, «ПРОвзгляд»

Цифровой релиз: 25 июня 2018, «НД Плэй»

Описание: Молодого бизнесмена Адриана Дориа обвиняют в убийстве любовницы, и он решает воспользоваться услугами Вирджинии Гудман, лучшего в стране адвоката. Накануне судебного заседания они встречаются для разработки стратегии защиты. Но чтобы выяснить правду, Вирджинии придется пойти на неожиданные меры.
Качество исходника: Blu-Ray (BlueBird)
Качество: BDRip
Тип: SD (576p)
Контейнер: M4V
Видео: H.264, 1024x432, 2.40:1, 2 200 Kbps, 23.976 fps

Аудио 1: Русский/Дублированный (iTunes), AAC / 2.0 / 128 Kbps / 48.0 KHz
Аудио 2: Испанский/Оригинальная дорожка , AAC / 2.0 / 128 Kbps / 48.0 KHz

Субтитры 1: Русские полные
Субтитры 2: Английские полные
Sort Name: Contratiempo
XID: Apple:vendor_id:2016-959365
contentID: 1190143686
Copyright: © 2016 Warner Bros. Entertainment. All rights reserved.
Screenwriters: Ориол Паоло
Producers: Мерседес Гамеро, Адриан Герра, Микель Лехарса
Director: Ориол Паоло
Cast: Марио Касас, Ана Вахенер, Хосе Коронадо, Барбара Ленни, Франсеск Орелья, Пако Тоус, Давид Сельвас, Иньиго Гастези, Сан Еламос, Манель Дуэсо
Studio: Warnes Bros
Rating: 0
Long Description: В один прекрасный день молодой бизнесмен Эдриан Дориа просыпается в закрытом изнутри номере отеля рядом с бездыханным телом своей любовницы. Его обвиняют в убийстве, но он, не считая себя виновным, решает воспользоваться услугами Вирджинии Гудман, лучшего в стране специалиста по выходу из самых сложных ситуаций. В течение одной ночи консультант и её клиент будут работать, чтобы найти разумное опровержение обвинению, и, тем самым, высвободить его из тюрьмы.
Description: В один прекрасный день молодой бизнесмен Эдриан Дориа просыпается в закрытом изнутри номере отеля рядом с бездыханным телом своей любовницы. Его обвиняют в убийстве, но он, не считая себя виновным, решает воспользоваться услугами Вирджинии Гудман, лучшего в стране специалиста по выходу из самых сложных ситуаций...
Release Date: 2016-09-23T08:00:00Z
Genre: Thriller
Artist: Oriol Paulo
Name: Contratiempo (2017)
General
Complete name                            : /Users/imac/HandBrake/Contratiempo.(SD).(pk).m4v
Format                                   : MPEG-4
Codec ID                                 : M4V  (M4V /M4A /mp42/isom)
File size                                : 1.82 GiB
Duration                                 : 1h 46mn
Overall bit rate mode                    : Variable
Overall bit rate                         : 2 457 Kbps
Movie name                               : Contratiempo (2017)
Performer                                : Oriol Paulo
Director                                 : Ориол Паоло
Actor                                    : Марио Касас / Ана Вахенер / Хосе Коронадо / Барбара Ленни / Франсеск Орелья / Пако Тоус / Давид Сельвас / Иньиго Гастези / Сан Еламос / Манель Дуэсо
Screenplay by                            : Ориол Паоло
Producer                                 : Мерседес Гамеро / Адриан Герра / Микель Лехарса
Production studio                        : Warnes Bros
Genre                                    : Thriller
ContentType                              : Short Film
Description                              : В один прекрасный день молодой бизнесмен Эдриан Дориа просыпается в закрытом изнутри номере отеля рядом с бездыханным телом своей любовницы. Его обвиняют в убийстве, но он, не считая себя виновным, решает воспользоваться услугами Вирджинии Гудман, лучшего в стране специалиста по выходу из самых сложных ситуаций...
Recorded date                            : UTC 2016-09-23 08:00:00
Encoded date                             : UTC 2018-07-01 11:25:16
Tagged date                              : UTC 2018-07-01 11:26:09
Copyright                                : © 2016 Warner Bros. Entertainment. All rights reserved.
Cover                                    : Yes
Rating                                   : None
Title/Sort                               : Contratiempo
LongDescription                          : В один прекрасный день молодой бизнесмен Эдриан Дориа просыпается в закрытом изнутри номере отеля рядом с бездыханным телом своей любовницы. Его обвиняют в убийстве, но он, не считая себя виновным, решает воспользоваться услугами Вирджинии Гудман, лучшего в стране специалиста по выходу из самых сложных ситуаций. В течение одной ночи консультант и её клиент будут работать, чтобы найти разумное опровержение обвинению, и, тем самым, высвободить его из тюрьмы.
AppleStoreCatalogID                      : 1190143686
Vendor                                   : Apple:vendor_id:2016-959365
ContentRating                            : mpaa|Unrated|???|

Video #1
ID                                       : 1
Format                                   : AVC
Format/Info                              : Advanced Video Codec
Format profile                           : [email protected]
Format settings                          : CABAC / 9 Ref Frames
Format settings, CABAC                   : Yes
Format settings, ReFrames                : 9 frames
Codec ID                                 : avc1
Codec ID/Info                            : Advanced Video Coding
Duration                                 : 1h 46mn
Source duration                          : 1h 46mn
Bit rate                                 : 2 200 Kbps
Width                                    : 1 024 pixels
Height                                   : 432 pixels
Display aspect ratio                     : 2.40:1
Frame rate mode                          : Variable
Frame rate                               : 23.976 fps
Minimum frame rate                       : 23.810 fps
Maximum frame rate                       : 23.981 fps
Color space                              : YUV
Chroma subsampling                       : 4:2:0
Bit depth                                : 8 bits
Scan type                                : Progressive
Bits/(Pixel*Frame)                       : 0.207
Stream size                              : 1.63 GiB (89%)
Source stream size                       : 1.63 GiB (89%)
Title                                    : Main Program
Writing library                          : x264 core 155 r2901 7d0ff22
Encoding settings                        : cabac=1 / ref=9 / deblock=1:0:0 / analyse=0x3:0x113 / me=umh / subme=9 / psy=1 / psy_rd=1.00:0.00 / mixed_ref=1 / me_range=32 / chroma_me=1 / trellis=1 / 8x8dct=1 / cqm=0 / deadzone=21,11 / fast_pskip=1 / chroma_qp_offset=-2 / threads=13 / lookahead_threads=1 / sliced_threads=0 / nr=0 / decimate=1 / interlaced=0 / bluray_compat=0 / constrained_intra=0 / bframes=6 / b_pyramid=2 / b_adapt=2 / b_bias=0 / direct=1 / weightb=1 / open_gop=0 / weightp=2 / keyint=240 / keyint_min=24 / scenecut=40 / intra_refresh=0 / rc_lookahead=40 / rc=2pass / mbtree=1 / bitrate=2200 / ratetol=1.0 / qcomp=0.60 / qpmin=0 / qpmax=69 / qpstep=4 / cplxblur=20.0 / qblur=0.5 / ip_ratio=1.40 / aq=1:1.00
Language                                 : Spanish
Encoded date                             : UTC 2018-07-01 11:25:16
Tagged date                              : UTC 2018-07-01 11:25:22
Color range                              : Limited
Color primaries                          : BT.709
Transfer characteristics                 : BT.709
Matrix coefficients                      : BT.709
Menus                                    : 6,7

Video #2
ID                                       : 7
Format                                   : JPEG
Codec ID                                 : jpeg
Duration                                 : 1h 46mn
Bit rate mode                            : Variable
Bit rate                                 : 371 bps
Width                                    : 640 pixels
Height                                   : 270 pixels
Display aspect ratio                     : 2.40:1
Frame rate mode                          : Variable
Frame rate                               : 0.002 fps
Minimum frame rate                       : 0.001 fps
Maximum frame rate                       : 0.004 fps
Color space                              : YUV
Chroma subsampling                       : 4:2:0
Bit depth                                : 8 bits
Compression mode                         : Lossy
Bits/(Pixel*Frame)                       : 1.073
Stream size                              : 272 KiB (0%)
Title                                    : Chapter Images
Language                                 : Spanish
Default                                  : No
Encoded date                             : UTC 2018-07-01 11:25:30
Tagged date                              : UTC 2018-07-01 11:25:30
Menu For                                 : 1
ColorSpace_ICC                           : RGB

Audio #1
ID                                       : 2
Format                                   : AAC
Format/Info                              : Advanced Audio Codec
Format profile                           : LC
Codec ID                                 : mp4a-40-2
Duration                                 : 1h 46mn
Source duration                          : 1h 46mn
Bit rate mode                            : Variable
Bit rate                                 : 125 Kbps
Maximum bit rate                         : 186 Kbps
Channel(s)                               : 2 channels
Channel positions                        : Front: L R
Sampling rate                            : 48.0 KHz
Frame rate                               : 46.875 fps (1024 SPF)
Compression mode                         : Lossy
Stream size                              : 95.1 MiB (5%)
Source stream size                       : 95.1 MiB (5%)
Title                                    : Russian Stereo
Language                                 : Russian
Default                                  : Yes
Alternate group                          : 1
Encoded date                             : UTC 2018-07-01 11:25:16
Tagged date                              : UTC 2018-07-01 11:25:26

Audio #2
ID                                       : 3
Format                                   : AAC
Format/Info                              : Advanced Audio Codec
Format profile                           : LC
Codec ID                                 : mp4a-40-2
Duration                                 : 1h 46mn
Source duration                          : 1h 46mn
Bit rate mode                            : Variable
Bit rate                                 : 125 Kbps
Maximum bit rate                         : 202 Kbps
Channel(s)                               : 2 channels
Channel positions                        : Front: L R
Sampling rate                            : 48.0 KHz
Frame rate                               : 46.875 fps (1024 SPF)
Compression mode                         : Lossy
Stream size                              : 95.2 MiB (5%)
Source stream size                       : 95.2 MiB (5%)
Title                                    : Spanish Stereo
Language                                 : Spanish
Default                                  : No
Alternate group                          : 1
Encoded date                             : UTC 2018-07-01 11:25:16
Tagged date                              : UTC 2018-07-01 11:25:26

Text #1
ID                                       : 4
Format                                   : Timed Text
Muxing mode                              : sbtl
Codec ID                                 : tx3g
Duration                                 : 1h 41mn
Bit rate mode                            : Variable
Bit rate                                 : 118 bps
Stream size                              : 87.7 KiB (0%)
Title                                    : Russian full
Language                                 : Russian
Default                                  : Yes
Forced                                   : No
Alternate group                          : 2
Encoded date                             : UTC 2018-07-01 11:25:16
Tagged date                              : UTC 2018-07-01 11:25:18

Text #2
ID                                       : 5
Format                                   : Timed Text
Muxing mode                              : sbtl
Codec ID                                 : tx3g
Duration                                 : 1h 41mn
Bit rate mode                            : Variable
Bit rate                                 : 63 bps
Stream size                              : 46.9 KiB (0%)
Title                                    : English full
Language                                 : English
Default                                  : No
Forced                                   : No
Alternate group                          : 2
Encoded date                             : UTC 2018-07-01 11:25:16
Tagged date                              : UTC 2018-07-01 11:25:18

Menu #1
00:00:00.000                             : 00:00:00.000
00:08:11.326                             : 00:08:11.292
00:16:51.598                             : 00:16:51.583
00:24:57.459                             : 00:24:57.458
00:33:23.757                             : 00:33:23.750
00:42:03.903                             : 00:42:03.875
00:50:58.522                             : 00:50:58.500
01:00:14.870                             : 01:00:14.833
01:08:56.728                             : 01:08:56.708
01:18:00.772                             : 01:18:00.750
01:22:04.975                             : 01:22:04.958
01:30:27.395                             : 01:30:27.375

Menu #2
ID                                       : 6
Codec ID                                 : text
Duration                                 : 1h 46mn
Language                                 : Spanish
Encoded date                             : UTC 2018-07-01 11:25:26
Tagged date                              : UTC 2018-07-01 11:25:26
Bit rate mode                            : CBR
Menu For                                 : 1
00:00:00.000                             : 00:00:00.000
00:08:11.326                             : 00:08:11.292
00:16:51.598                             : 00:16:51.583
00:24:57.459                             : 00:24:57.458
00:33:23.757                             : 00:33:23.750
00:42:03.903                             : 00:42:03.875
00:50:58.522                             : 00:50:58.500
01:00:14.870                             : 01:00:14.833
01:08:56.728                             : 01:08:56.708
01:18:00.772                             : 01:18:00.750
01:22:04.975                             : 01:22:04.958
01:30:27.395                             : 01:30:27.375
x264 [info]: frame I:1642  Avg QP: 7.21  size: 91014
x264 [info]: frame P:32278 Avg QP:10.06  size: 27414
x264 [info]: frame B:118640 Avg QP:13.19  size:  6018
x264 [info]: consecutive B-frames:  2.2%  3.7%  7.3% 11.5% 14.4% 53.5%  7.4%
x264 [info]: mb I  I16..4: 12.1% 59.1% 28.8%
x264 [info]: mb P  I16..4:  2.4%  9.0%  2.2%  P16..4: 29.0% 24.0% 21.8%  0.0%  0.0%    skip:11.7%
x264 [info]: mb B  I16..4:  0.4%  0.8%  0.2%  B16..8: 32.5% 13.7%  4.3%  direct: 4.6%  skip:43.5%  L0:46.3% L1:40.1% BI:13.6%
x264 [info]: 8x8 transform intra:62.3% inter:58.2%
x264 [info]: coded y,uvDC,uvAC intra: 77.9% 75.8% 69.5% inter: 24.2% 14.2% 7.2%
x264 [info]: i16 v,h,dc,p: 63% 14% 10% 12%
x264 [info]: i8 v,h,dc,ddl,ddr,vr,hd,vl,hu: 17% 13% 18%  7%  8%  9%  8%  9% 10%
x264 [info]: i4 v,h,dc,ddl,ddr,vr,hd,vl,hu: 14% 11%  9%  8% 13% 13% 11% 10% 11%
x264 [info]: i8c dc,h,v,p: 57% 20% 16%  7%
x264 [info]: Weighted P-Frames: Y:2.8% UV:1.4%
x264 [info]: ref P L0: 55.1%  6.0% 14.8%  7.7%  4.9%  4.3%  3.1%  2.1%  1.9%  0.1%  0.0%
x264 [info]: ref B L0: 71.9% 13.0%  6.7%  3.1%  2.3%  1.7%  1.1%  0.3%
x264 [info]: ref B L1: 92.8%  7.2%
x264 [info]: kb/s:2198.11

Релиз подготовлен для просмотра на Apple TV, iPad, iPhone, iPod Touch.
Для просмотра данного релиза на компьютере с ОС Windows рекомендуется использовать VLC media player

Трекер:  [ 01-Июл-2018 15:06 ]

  

Скачать .torrent

Размер .torrent файла 37 KB


Размер: 1.82 GB
Хэш (hash) релиза: dca5f550f6a0fe28f9c62c6d62f6cc1a8039df87

Еще никто не оставлял запись к записи скачать торрент [iPad] Невидимый гость Contratiempo . Будь первым!

!Обратная связь