The Taoism Grandmaster | IObit Uninstaller Pro 7 4 0 8 Portable | Play Movie

Скачать через торрент Мастера меча онлайн: Альтернативная «Призрачная пуля» Sword Art Online Alternative: Gun Gale Online бесплатно Аниме Все серии на русском torrent

Статистика раздачи
Размер:  2.87 GB   |    Зарегистрирован:  1 месяц 17 дней   |    .torrent скачан:  28 раз   |   
Раздают:  1  
   
загрузка...
 
Автор Сообщение

Galfimbul

avatar Galfimbul


Мастера меча онлайн: Альтернативная «Призрачная пуля» / Sword Art Online Alternative: Gun Gale Online

Страна: Япония
Год выпуска: 2018
Жанр: приключения, триллер, фантастика
Тип: TV
Продолжительность: ТВ (12 эп.), 00:24:00
Режиссер: Масаюки Сакой
Студия: Studio 3Hz

Описание:
Виртуальная онлайн игра «Мастера Меча Онлайн» вызвала волну негодования и протестов после обнародования СМИ информации о том, что гибель персонажа внутри игры приводила к гибели человека в реальности. Этот скандал привёл практически к краху зарождавшейся индустрии виртуальных компьютерных игр. Однако появление пакета обновлений призванных полностью обезопасить пользователей от хакерских атак во время игры, привело к новому всплеску популярности данного вида развлечения. В результате этого всё новые и новые игры стали появляться с бешеной скоростью. Одна из таких игр нашла преданных фанатов, благодаря мрачному миру и битвами между игроками при помощи стрелковых орудий и мечей. И название данной сверхпопулярной онлайн игры - Призрачная пуля.

Доп. информация:
Релиз GSGroup


Качество: HDTVRip
Тип релиза: Без хардсаба
Формат видео: AVI
Релиз/Автор рипа: gsg
Совместимость с бытовыми плеерами: Да
Видео: XviD, 704x400, 1312 Kbps, 23.976 fps, 8 bits
Аудио 1: AC-3, 192 Kbps, 2 channels, 48.0 KHz Язык Русский (в составе контейнера) ; Озвучка: женская одноголосая: Persona99
Аудио 2: AC-3, 192 Kbps, 2 channels, 48.0 KHz Язык Японский ; Озвучка 2: оригинал
Субтитры: внешние ass, srt Язык субтитров русский ; Перевод: Перевод, редакция: Aero Оформление: Nika_Elrik
GeneralComplete name : Sword Art Online Alternative Gun Gale Online\01-Sword Art Online ~Alternative Gun Gale Online~ [Persona99](XviD 704x400 AC3).rus.jap.aviFormat : AVIFormat/Info : Audio Video InterleaveFile size : 294 MiBDuration : 23mn 59sOverall bit rate : 1 710 KbpsWriting application : VirtualDubMod 1.5.10.2 (build 2540/release)Writing library : VirtualDubMod build 2540/release

VideoID : 0Format : MPEG-4 VisualFormat profile : Advanced [email protected] settings, BVOP : 2Format settings, QPel : NoFormat settings, GMC : No warppointsFormat settings, Matrix : Default (H.263)Codec ID : XVIDCodec ID/Hint : XviDDuration : 23mn 59sBit rate : 1 312 KbpsWidth : 704 pixelsHeight : 400 pixelsDisplay aspect ratio : 16:9Frame rate : 23.976 fpsColor space : YUVChroma subsampling : 4:2:0Bit depth : 8 bitsScan type : ProgressiveCompression mode : LossyBits/(Pixel*Frame) : 0.194Stream size : 225 MiB (77%)Writing library : XviD 67

Audio #1ID : 1Format : AC-3Format/Info : Audio Coding 3Mode extension : CM (complete main)Format settings, Endianness : BigCodec ID : 2000Duration : 23mn 59sBit rate mode : ConstantBit rate : 192 KbpsChannel(s) : 2 channelsChannel positions : Front: L RSampling rate : 48.0 KHzCompression mode : LossyStream size : 33.0 MiB (11%)Alignment : Split accross interleavesInterleave, duration : 42 ms (1.00 video frame)Interleave, preload duration : 500 ms

Audio #2ID : 2Format : AC-3Format/Info : Audio Coding 3Mode extension : CM (complete main)Format settings, Endianness : BigCodec ID : 2000Duration : 23mn 59sBit rate mode : ConstantBit rate : 192 KbpsChannel(s) : 2 channelsChannel positions : Front: L RSampling rate : 48.0 KHzCompression mode : LossyStream size : 33.0 MiB (11%)Alignment : Split accross interleavesInterleave, duration : 42 ms (1.00 video frame)Interleave, preload duration : 500 ms
01. Squad Jam
02. GGO
03. Fan Letter
04. Death Game
05. Leave the Last Battle to Me
06. SAO Loser
07. Second Squad Jam
08. Booby Trap
09. Ten-Minute Massacre
10. The Devil`s Comeback

Семпл:

Трекер:  [ 01-Июл-2018 12:30 ]

  

Скачать .torrent

Размер .torrent файла 18 KB


Размер: 2.87 GB
Хэш (hash) релиза: 544f95002da365d9cdc132405bfbf8547d994c8d
Подписка на обновления:

Еще никто не оставлял запись к записи скачать торрент Мастера меча онлайн: Альтернативная «Призрачная пуля» Sword Art Online Alternative: Gun Gale Online . Будь первым!

!Обратная связь