Beauty and the Beast | Simpsons Shorts | Trickfilm

Скачать через торрент Скиф Фильм бесплатно в хорошем качестве torrent

Скачивайте на UnionPeer.org фильмы через торрент без регистрации. Новинки кино в хорошем качестве через торрент. На UnionPeer.org можно скачать через торрент фильмы 2014 и 2015 годов. Самые новые фильмы.

Скачать торрент Скиф бесплатно через .torrent фильм мультфильм сериал

 
Автор Сообщение

Galfimbul

avatar Galfimbul


Скиф



[b]Год выхода:
2018
Жанр: Фэнтези
, боевик, приключения
Режиссер: Рустам Мосафир
В ролях: Алексей Фаддеев, Виталий Кравченко (I), Александр Кузнецов (VI), Александр Пацевич, Юрий Цурило, Андрей Пермяков, Василиса Измайлова, Алексей Овсянников, Фёдор Рощин, Рустам Мосафир

Описание: В Евразии начинается новая эра. Ушли в небытие гордые воины — скифы, их вымирающие потомки превратились в безжалостных наемных убийц, «волков Ареса». Ратнику Лютобору предстоит тяжелое испытание. Втянутый в междоусобные интриги он отправляется в опасный путь ради спасения семьи, а его проводником становится пленный скиф Куница. Они — враги и молятся разным богам, но вынуждены идти вместе. Через дикий степной мир к пристанищу последних скифов, где их ждет почти неминуемая смерть…

Страна: Россия
Студия: Кинокомпания СТВ
Продолжительность: 01:44:32
Язык: Русский

Файл
Исходник: Blu-ray 1080p GER Transfer
Кодек: MPEG-2
Качество: DVD-9
Видео: MPEG2, NTSC 16:9 ([email protected]) VBR, 23,976 кадра/сек
Звук: Русский / Немецкий DD 5.1 (448 Kbps)

Title:
Size: 5.74 Gb ( 6 022 942 KBytes ) - DVD-9
Enabled regions: 1, 2, 3, 4, 5, 6, 7, 8

VTS_01 :
Play Length: 01:44:26+00:01:32
Video: NTSC 16:9 (720x480) VBR, Auto Pan&Scan
Audio:
Russian (Dolby AC3, 6 ch)
Deutsch (Dolby AC3, 6 ch)

Menu Video:
NTSC 4:3 (720x480) VBR
Menu English Language Unit :
Root Menu
Общее
Полное имя : G:ААА2СКИФVIDEO_TSVTS_01_1.VOB
Формат : MPEG-PS
Размер файла : 1000 Мбайт
Продолжительность : 17 м.
Режим общего битрейта : Переменный
Общий поток : 7911 Кбит/сек

Видео
Идентификатор : 224 (0xE0)
Формат : MPEG Video
Версия формата : Version 2
Профиль формата : [email protected]
Параметр BVOP формата : Да
Параметр матрицы формата : По умолчанию
Параметр GOP формата : M=3, N=12
Продолжительность : 17 м.
Вид битрейта : Переменный
Битрейт : 6858 Кбит/сек
Максимальный битрейт : 8304 Кбит/сек
Ширина : 720 пикселей
Высота : 480 пикселей
Соотношение сторон : 16:9
Частота кадров : 23,976 кадра/сек
Стандарт вещания : NTSC
Цветовое пространство : YUV
Субдискретизация насыщенности : 4:2:0
Битовая глубина : 8 бит
Тип развёртки : Прогрессивная
Порядок развёртки : 2:3 Pulldown
Метод сжатия : С потерями
Бит/(Пиксели*Кадры) : 0.828
TimeCode_FirstFrame : 00:00:00;00
TimeCode_Source : Group of pictures header
Размер потока : 867 Мбайт (87%)

Аудио #1
Идентификатор : 189 (0xBD)-128 (0x80)
Формат : AC-3
Формат/Информация : Audio Coding 3
Расширение режима : CM (complete main)
Параметр Endianness формата : Big
Режим смешивания : DVD-Video
Продолжительность : 17 м.
Вид битрейта : Постоянный
Битрейт : 448 Кбит/сек
Каналы : 6 каналов
Расположение каналов : Front: L C R, Side: L R, LFE
Частота : 48,0 КГц
Битовая глубина : 16 бит
Метод сжатия : С потерями
Размер потока : 56,6 Мбайт (6%)

Аудио #2
Идентификатор : 189 (0xBD)-129 (0x81)
Формат : AC-3
Формат/Информация : Audio Coding 3
Расширение режима : CM (complete main)
Параметр Endianness формата : Big
Режим смешивания : DVD-Video
Продолжительность : 17 м.
Вид битрейта : Постоянный
Битрейт : 448 Кбит/сек
Каналы : 6 каналов
Расположение каналов : Front: L C R, Side: L R, LFE
Частота : 48,0 КГц
Битовая глубина : 16 бит
Метод сжатия : С потерями
Размер потока : 56,6 Мбайт (6%)

Меню
Релиз:
Источник http://BlaTor.org

Еще никто не оставлял запись к записи скачать торрент Скиф . Будь первым!

!Обратная связь