Impulse HDTV 720p AC3 5.1 | BD Shinryaku Ika Musume Season 2 Subtitle Indonesia | Calendar Girl. Tammikuu

Скачать через торрент Операция «Шаровая молния» Entebbe бесплатно русская версия torrent активатор

Статистика раздачи
Размер:  1.16 GB   |    Зарегистрирован:  21 день   |    .torrent скачан:  34 раза   |   
Раздают:  1  
   
загрузка...
 
Автор Сообщение

Galfimbul

avatar Galfimbul


Операция «Шаровая молния» / Entebbe
«248 пассажиров. 7 дней. Один план спасения»

5.770 / 10 5.80 / 10
Год выпуска: 2018
Страна: США
Жанр: Триллер, драма, криминал, история
Продолжительность: 01:47:00

Перевод: Дублированный (iTunes)
Оригинальная аудиодорожка: Есть
Cубтитры: Английские
Режиссёр: Жозе Падилья
Сценарий: Грегори Бурк
Продюсер: Тим Беван, Эрик Феллнер, Рон Халперн
Оператор: Лула Карвальо
Композитор: Родриго Амаранте
Художник: Кейв Куинн, Чарло Далли, Сабина Дайгелер
Монтаж: Даниэл Резенде
В ролях: Розамунд Пайк, Эдди Марсан, Даниэль Брюль, Нонсо Анози, Бен Шнетцер, Камиль Лемешевский, Хуан Пабло Раба, Марк Иванир, Дени Меноше, Бронтис Ходоровски

Сборы в России: $89 967

Мировая премьера: 19 февраля 2018
Премьера (РФ): 5 апреля 2018, «MEGOGO Distribution»

Описание: В 1976 году самолет, следовавший из Тель-Авива в Париж, был захвачен террористами и совершил вынужденную посадку в аэропорту Энтеббе в Уганде с целью обмена заложников на осужденных преступников. Дипломатического решения вопроса за 7 дней найти не удалось. Тогда был разработан весьма изобретательный и крайне смелый план спасения…
Качество исходника: BDRemux (NNMClub)
Качество: BDRip
Тип: SD (480p)
Контейнер: M4V
Видео: H.264, 640x356 анаморф 852х356, 2.40:1, 1 300 Kbps, 23.976 fps

Аудио 1: Русский/Дублированный (iTunes), AAC / 2.0 / 128 Kbps / 48.0 KHz
Аудио 2: Английский/Оригинальная дорожка , AAC / 2.0 / 128 Kbps / 48.0 KHz

Субтитры: Английские полные
Sort Name: 7 Days In Entebbe
XID: Apple:vendor_id:2018-995013
contentID: 1354496912
Copyright: © 2017 Focus Features. All Rights Reserved.
Screenwriters: Грегори Бурк
Producers: Тим Беван, Эрик Феллнер, Рон Халперн
Director: Жозе Падилья
Cast: Розамунд Пайк, Эдди Марсан, Даниэль Брюль, Нонсо Анози, Бен Шнетцер, Камиль Лемешевский, Хуан Пабло Раба, Марк Иванир, Дени Меноше, Бронтис Ходоровски
Studio: Focus Features
Rating: 4
Long Description: В 1976 году самолет, следовавший из Тель-Авива в Париж, был захвачен террористами и совершил вынужденную посадку в аэропорту Энтеббе в Уганде с целью обмена заложников на осужденных преступников. Дипломатического решения вопроса за 7 дней найти не удалось. Тогда был разработан весьма изобретательный и крайне смелый план спасения...
Description: В 1976 году самолет, следовавший из Тель-Авива в Париж, был захвачен террористами и совершил вынужденную посадку в аэропорту Энтеббе в Уганде с целью обмена заложников на осужденных преступников. Дипломатического решения вопроса за 7 дней найти не удалось. Тогда был разработан весьма изобретательный и крайне смелый план спасения...
Release Date: 2018-02-19T08:00:00Z
Genre: Action & Adventure
Artist: José Padilha
Name: 7 Days In Entebbe
General
Complete name : /Users/imac/HandBrake/7.Days.in.Entebbe.(480p).(pk).m4v
Format : MPEG-4
Codec ID : M4V
File size : 1.16 GiB
Duration : 1h 47mn
Overall bit rate mode : Variable
Overall bit rate : 1 550 Kbps
Movie name : 7 Days In Entebbe
Performer : José Padilha
Director : Жозе Падилья
Actor : Розамунд Пайк / Эдди Марсан / Даниэль Брюль / Нонсо Анози / Бен Шнетцер / Камиль Лемешевский / Хуан Пабло Раба / Марк Иванир / Дени Меноше / Бронтис Ходоровски
Screenplay by : Грегори Бурк
Producer : Тим Беван / Эрик Феллнер / Рон Халперн
Production studio : Focus Features
Genre : Action & Adventure
ContentType : Short Film
Description : В 1976 году самолет, следовавший из Тель-Авива в Париж, был захвачен террористами и совершил вынужденную посадку в аэропорту Энтеббе в Уганде с целью обмена заложников на осужденных преступников. Дипломатического решения вопроса за 7 дней найти не удалось. Тогда был разработан весьма изобретательный и крайне смелый план спасения...
Recorded date : UTC 2018-02-19 08:00:00
Encoded date : UTC 2018-06-29 23:48:06
Tagged date : UTC 2018-06-29 23:49:14
Copyright : © 2017 Focus Features. All Rights Reserved.
Cover : Yes
Rating : None
Title/Sort : 7 Days In Entebbe
LongDescription : В 1976 году самолет, следовавший из Тель-Авива в Париж, был захвачен террористами и совершил вынужденную посадку в аэропорту Энтеббе в Уганде с целью обмена заложников на осужденных преступников. Дипломатического решения вопроса за 7 дней найти не удалось. Тогда был разработан весьма изобретательный и крайне смелый план спасения...
AppleStoreCatalogID : 1354496912
Vendor : Apple:vendor_id:2018-995013
ContentRating : mpaa|PG-13|300|

Video #1
ID : 1
Format : AVC
Format/Info : Advanced Video Codec
Format profile : [email protected]
Format settings, CABAC : No
Format settings, ReFrames : 2 frames
Codec ID : avc1
Codec ID/Info : Advanced Video Coding
Duration : 1h 47mn
Bit rate : 1 300 Kbps
Width : 640 pixels
Height : 356 pixels
Display aspect ratio : 2.40:1
Frame rate mode : Variable
Frame rate : 23.976 fps
Minimum frame rate : 23.974 fps
Maximum frame rate : 23.981 fps
Color space : YUV
Chroma subsampling : 4:2:0
Bit depth : 8 bits
Scan type : Progressive
Bits/(Pixel*Frame) : 0.238
Stream size : 995 MiB (84%)
Title : Main Program
Writing library : x264 core 155 r2901 7d0ff22
Encoding settings : cabac=0 / ref=2 / deblock=1:0:0 / analyse=0x1:0x111 / me=umh / subme=6 / psy=1 / psy_rd=1.00:0.00 / mixed_ref=1 / me_range=16 / chroma_me=1 / trellis=0 / 8x8dct=0 / cqm=0 / deadzone=21,11 / fast_pskip=1 / chroma_qp_offset=-2 / threads=11 / lookahead_threads=1 / sliced_threads=0 / nr=0 / decimate=1 / interlaced=0 / bluray_compat=0 / constrained_intra=0 / bframes=0 / weightp=0 / keyint=240 / keyint_min=24 / scenecut=40 / intra_refresh=0 / rc_lookahead=40 / rc=2pass / mbtree=1 / bitrate=1300 / ratetol=1.0 / qcomp=0.60 / qpmin=0 / qpmax=69 / qpstep=4 / cplxblur=20.0 / qblur=0.5 / vbv_maxrate=5000 / vbv_bufsize=5000 / nal_hrd=none / filler=0 / ip_ratio=1.40 / aq=1:1.00
Language : English
Encoded date : UTC 2018-06-29 23:48:06
Tagged date : UTC 2018-06-29 23:48:11
Color range : Limited
Color primaries : BT.709
Transfer characteristics : BT.709
Matrix coefficients : BT.709

Video #2
ID : 6
Format : JPEG
Codec ID : jpeg
Duration : 1h 47mn
Bit rate mode : Variable
Bit rate : 665 bps
Width : 640 pixels
Height : 267 pixels
Display aspect ratio : 2.40:1
Frame rate mode : Variable
Frame rate : 0.003 fps
Minimum frame rate : 0.002 fps
Maximum frame rate : 0.010 fps
Color space : YUV
Chroma subsampling : 4:2:0
Bit depth : 8 bits
Compression mode : Lossy
Bits/(Pixel*Frame) : 1.297
Stream size : 541 KiB (0%)
Title : Chapter Images
Language : English
Encoded date : UTC 2018-06-29 23:48:17
Tagged date : UTC 2018-06-29 23:48:18

Audio #1
ID : 2
Format : AAC
Format/Info : Advanced Audio Codec
Format profile : LC
Codec ID : 40
Duration : 1h 46mn
Source duration : 1h 46mn
Bit rate mode : Variable
Bit rate : 121 Kbps
Maximum bit rate : 189 Kbps
Channel(s) : 2 channels
Channel positions : Front: L R
Sampling rate : 48.0 KHz
Compression mode : Lossy
Stream size : 92.3 MiB (8%)
Source stream size : 92.3 MiB (8%)
Title : Russian Stereo
Language : Russian
Encoded date : UTC 2018-06-29 23:48:06
Tagged date : UTC 2018-06-29 23:48:14

Audio #2
ID : 3
Format : AAC
Format/Info : Advanced Audio Codec
Format profile : LC
Codec ID : 40
Duration : 1h 47mn
Source duration : 1h 47mn
Bit rate mode : Variable
Bit rate : 122 Kbps
Maximum bit rate : 202 Kbps
Channel(s) : 2 channels
Channel positions : Front: L R
Sampling rate : 48.0 KHz
Compression mode : Lossy
Stream size : 93.1 MiB (8%)
Source stream size : 93.1 MiB (8%)
Title : English Stereo
Language : English
Encoded date : UTC 2018-06-29 23:48:06
Tagged date : UTC 2018-06-29 23:48:14

Text
ID : 4
Format : Timed Text
Muxing mode : sbtl
Codec ID : tx3g
Duration : 1h 37mn
Bit rate mode : Variable
Bit rate : 54 bps
Stream size : 38.3 KiB (0%)
Title : English full
Language : English
Encoded date : UTC 2018-06-29 23:48:06
Tagged date : UTC 2018-06-29 23:48:14

Menu #1
00:00:00.000 : 00:00:00.000
00:02:32.569 : 00:02:32.569
00:06:17.669 : 00:06:17.669
00:12:00.261 : 00:12:00.261
00:19:00.431 : 00:19:00.431
00:24:11.575 : 00:24:11.575
00:28:10.606 : 00:28:10.606
00:32:43.420 : 00:32:43.420
00:38:10.413 : 00:38:10.413
00:44:32.545 : 00:44:32.545
00:49:31.469 : 00:49:31.468
00:53:06.016 : 00:53:06.016
00:58:22.833 : 00:58:22.708
01:04:04.549 : 01:04:04.549
01:08:07.625 : 01:08:07.625
01:16:13.986 : 01:16:13.986
01:21:11.617 : 01:21:11.617
01:28:57.999 : 01:28:57.999
01:37:31.846 : 01:37:31.846
01:39:09.902 : 01:39:09.902

Menu #2
ID : 5
Codec ID : text
Duration : 1h 47mn
Language : English
Encoded date : UTC 2018-06-29 23:48:14
Tagged date : UTC 2018-06-29 23:48:14
Bit rate mode : CBR
00:00:00.000 : 00:00:00.000
00:02:32.569 : 00:02:32.569
00:06:17.669 : 00:06:17.669
00:12:00.261 : 00:12:00.261
00:19:00.431 : 00:19:00.431
00:24:11.575 : 00:24:11.575
00:28:10.606 : 00:28:10.606
00:32:43.420 : 00:32:43.420
00:38:10.413 : 00:38:10.413
00:44:32.545 : 00:44:32.545
00:49:31.469 : 00:49:31.468
00:53:06.016 : 00:53:06.016
00:58:22.833 : 00:58:22.708
01:04:04.549 : 01:04:04.549
01:08:07.625 : 01:08:07.625
01:16:13.986 : 01:16:13.986
01:21:11.617 : 01:21:11.617
01:28:57.999 : 01:28:57.999
01:37:31.846 : 01:37:31.846
01:39:09.902 : 01:39:09.902
x264 [info]: frame I:1688  Avg QP:14.37  size: 30689
x264 [info]: frame P:152249 Avg QP:17.27  size:  6512
x264 [info]: mb I  I16..4: 21.7%  0.0% 78.3%
x264 [info]: mb P  I16..4:  1.0%  0.0%  2.3%  P16..4: 45.6% 22.7%  8.9%  0.0%  0.0%    skip:19.5%
x264 [info]: coded y,uvDC,uvAC intra: 63.9% 82.0% 67.5% inter: 23.6% 21.9% 7.8%
x264 [info]: i16 v,h,dc,p: 61% 11%  8% 20%
x264 [info]: i4 v,h,dc,ddl,ddr,vr,hd,vl,hu: 42% 11% 13%  5%  6%  8%  5%  6%  4%
x264 [info]: i8c dc,h,v,p: 45% 16% 31%  9%
x264 [info]: ref P L0: 69.1% 30.9%
x264 [info]: kb/s:1299.86

Релиз подготовлен для просмотра на Apple TV, iPad, iPhone, iPod Touch.
Для просмотра данного релиза на компьютере с ОС Windows рекомендуется использовать VLC media player

Трекер:  [ 30-Июн-2018 03:06 ]

  

Скачать .torrent

Размер .torrent файла 23 KB


Размер: 1.16 GB
Хэш (hash) релиза: 38a1691ad7355b140e2a2e9696a3a2b436dd64d2

Еще никто не оставлял запись к записи скачать торрент Операция «Шаровая молния» Entebbe . Будь первым!

!Обратная связь