Black Panther 2018 Türkçe Altyazılı izle | Full TV Series Dom Joly | bharat ane nenu

Скачать через торрент Моя первая гяру бесплатно Аниме Все серии на русском torrent

Статистика раздачи
Размер:  1.63 GB   |    Зарегистрирован:  1 месяц 19 дней   |    .torrent скачан:  40 раз   |   
Раздают:  1  
   
загрузка...
 
Автор Сообщение

Galfimbul

avatar Galfimbul



Страна: Япония
Год выпуска: 2017
Жанр: комедия, этти, романтика, школа
Тип: TV
Продолжительность: 1 эп. 24 мин.
Режиссер: Фурукава Хироюки
Студия: NAZ

Описание: В школе народ обычно делится на две категории. В первой - задроты и ботаники, а во второй народ попроще, без закидонов. Обычным ребятам, которые не испытывают никаких трудностей с общением, проще простого найти себе пару и как следует насладиться первой юношеской любовью. У задротов и ботаников с этим дело обстоит на порядок хуже, но ведь они такие же люди, а значит гормоны бьют ключом. Но им остаётся лишь мечтать и фантазировать об отношениях с противоположным полом, ведь обычная девушка в их сторону если и посмотрит, то только с презрением.

Шестнадцатилетний Джуничи Хашиба как раз в таком возрасте. Ему бы уроки делать, да к экзаменам готовиться, а он только и думает о том, как бы ему девственности побыстрее лишиться. Добрые друзья решили подколоть его и буквально заставили признаться в любви их красивой однокласснице-гяру Юкане Ямэ. Но кто бы мог подумать, что она действительно согласится встречаться с ним! Фантазии Джуничи наконец начинают сбываться, но непонятно, сладкий ли это сон или же жуткий кошмар.
Доп. информация: World-art
Качество: BDRip
Тип релиза: Без хардсаба
Формат видео: MKV
Наличие линковки: Нет
Релиз/Автор рипа: [ReinForce]
Видео: x264; V_MPEG4; 1920x1080; 8414 Кбит/сек; 23,976 кадра/сек; 8 bit
Аудио: JAP(int); FLAC; 48.0 kHz; 2.0 ch; 1440 Кбит/сек
Субтитры:RUS(ext); ASS; перевод: [Risens Team]
ОбщееУникальный идентификатор : 316853904506501013199694985111525999334 (0xEE5FD79EE8B20B4E16EA46ACEA8D42E6)Полное имя : D:\Film\[ReinForce] Hajimete no Gal (BDRip 1920x1080 x264 FLAC)\OVA\[ReinForce] Hajimete no Gal - OVA (BDRip 1920x1080 x264 FLAC).mkvФормат : MatroskaВерсия формата : Version 4 / Version 2Размер файла : 1,63 ГбайтПродолжительность : 23 м. 41 с.Режим общего битрейта : ПеременныйОбщий поток : 9855 Кбит/секДата кодирования : UTC 2018-04-05 05:36:53Программа кодирования : mkvmerge v21.0.0 ('Tardigrades Will Inherit The Earth') 64-bitБиблиотека кодирования : libebml v1.3.5 + libmatroska v1.4.8

ВидеоИдентификатор : 1Формат : AVCФормат/Информация : Advanced Video CodecПрофиль формата : [email protected]Настройки формата : CABAC / 4 Ref FramesПараметр CABAC формата : ДаПараметр RefFrames формата : 4 кадраИдентификатор кодека : V_MPEG4/ISO/AVCПродолжительность : 23 м. 41 с.Битрейт : 8414 Кбит/секШирина : 1920 пикселейВысота : 1080 пикселейСоотношение сторон : 16:9Режим частоты кадров : ПостоянныйЧастота кадров : 23,976 (24000/1001) кадра/секЦветовое пространство : YUVСубдискретизация насыщенности : 4:2:0Битовая глубина : 8 битТип развёртки : ПрогрессивнаяБит/(Пиксели*Кадры) : 0.169Размер потока : 1,39 Гбайт (85%)Библиотека кодирования : x264 core 152Настройки программы : opencl=1 / cabac=1 / ref=4 / deblock=1:-2:-2 / analyse=0x3:0x113 / me=umh / subme=9 / psy=1 / psy_rd=0.70:0.00 / mixed_ref=0 / me_range=32 / chroma_me=1 / trellis=2 / 8x8dct=1 / cqm=0 / deadzone=21,11 / fast_pskip=1 / chroma_qp_offset=-2 / threads=8 / lookahead_threads=1 / sliced_threads=0 / nr=0 / decimate=1 / interlaced=0 / bluray_compat=0 / constrained_intra=0 / bframes=9 / b_pyramid=2 / b_adapt=2 / b_bias=0 / direct=3 / weightb=1 / open_gop=0 / weightp=2 / keyint=250 / keyint_min=23 / scenecut=40 / intra_refresh=0 / rc_lookahead=40 / rc=crf / mbtree=1 / crf=16.0 / qcomp=0.70 / qpmin=10 / qpmax=20 / qpstep=4 / ip_ratio=1.40 / aq=1:1.00Default : ДаForced : Нет

АудиоИдентификатор : 2Формат : FLACФормат/Информация : Free Lossless Audio CodecИдентификатор кодека : A_FLACПродолжительность : 23 м. 41 с.Вид битрейта : ПеременныйБитрейт : 1440 Кбит/секКаналы : 2 каналаРасположение каналов : Front: L RЧастота : 48,0 КГцЧастота кадров : 10,417 кадров/сек (4608 SPF)Битовая глубина : 24 битРазмер потока : 244 Мбайт (15%)Библиотека кодирования : Lavf57.83.100Язык : JapaneseDefault : ДаForced : Нет
01. My First Cultural Festival


Трекер:  [ 29-Июн-2018 20:30 ]

  

Скачать .torrent

Размер .torrent файла 17 KB


Размер: 1.63 GB
Хэш (hash) релиза: 799ab8f1b8de228d2f5926d79758befa893764e1
Подписка на обновления:

Торренты, похожие на Моя первая гяру скачать торрент

Форум Название Автор Размер S L Добавлен
Аниме | HD Rips ·%· Моя первая гяру / Hajimete no Gal / My First Girlfriend is a Gal [TV] [10 из 10] [Без хардсаба] [RUS(ext), JAP+SUB] [2017, комедия, этти, романтика, школа, BDRip] [1080p] Galfimbul 1878617665417.5 GB 0 0 1530293425

20:30

29-Июн-18

Аниме | Rips ·· Моя первая гяру / Hajimete no Gal / My First Girlfriend is a Gal [TV] [10 из 10] [Без хардсаба] [RUS(int), JAP+SUB] [2017, комедия, романтика, этти, BDRip] [HWP] Galfimbul 30612041062.85 GB 0 0 1524762067

20:01

26-Апр-18

Аниме | HD Rips ·· Моя первая гяру / Hajimete no Gal / My First Girlfriend is a Gal [TV] [01 из 10] [Без хардсаба] [JAP+SUB] [2017, комедия, этти, романтика, школа, HDTVRip] [720p] Galfimbul 355779605339 MB 0 0 1500265892

07:31

17-Июл-17

Аниме | Rips ·· Моя первая гяру / Hajimete no Gal / My First Girlfriend is a Gal [TV] [01 из 10] [Без хардсаба] [RUS(ext), JAP, SUB] [2017, Романтика, Комедия, Этти, Сёнен, Школа, HDTVRip] [720p] Galfimbul 390440210372 MB 0 0 1499952664

16:31

13-Июл-17

Аниме | HD Rips ·· Моя первая гяру / Hajimete no Gal / My First Girlfriend is a Gal [TV] [01 из 10] [Без хардсаба] [JAP+SUB] [2017, комедия, этти, романтика, школа, HDTVRip] [720p] Galfimbul 355780985339 MB 0 0 1499938303

12:31

13-Июл-17

Еще никто не оставлял запись к записи скачать торрент Моя первая гяру . Будь первым!

!Обратная связь