You're Gonna N season 12 episode 21 | Zoey 101 | Dream High S2

Скачать через торрент Золотое божество Golden Kamuy Фильм бесплатно в хорошем качестве torrent

Скачивайте на UnionPeer.org фильмы через торрент без регистрации. Новинки кино в хорошем качестве через торрент. На UnionPeer.org можно скачать через торрент фильмы 2014 и 2015 годов. Самые новые фильмы.

Скачать торрент Золотое божество Golden Kamuy бесплатно через .torrent фильм мультфильм сериал

Статистика раздачи
Размер:  1.28 GB   |    Зарегистрирован:  17 дней   |    .torrent скачан:  25 раз   |   
Раздают:  1  
   
загрузка...
 
Автор Сообщение

Galfimbul

avatar Galfimbul


Золотое божество
Оригинальное название: Golden Kamuy
Период трансляции: c 09.04.2018 по 25.06.2018
Страна: Япония
Жанр: приключения
Продолжительность: 12 эп. по ~24 мин.
Режиссер: Намба Хитоси
Студия:
Перевод: Субтитры
Переводчик: Ryuji;
Редактор: laci;
Описание: В начале прошлого века далеко на севере Японии, на охваченном «золотой лихорадкой» Хоккайдо живёт ветеран русско-японской войны Саити Сугимото по прозвищу Бессмертный. Как и многие другие, он надеется быстро разбогатеть, чтобы спасти вдову своего товарища. Однажды в руки Сугимото попадает карта, указывающая на местоположение спрятанного золота айнов, некогда украденного шайкой бандитов. И вместе с девушкой-айном, когда-то спасшей ему жизнь, Сугимото отправляется на поиски золота. Но он не единственный, кто знает о существовании клада...
01. Wenkamuy
02. Nopperabo
03. Kamuy Mosir
04. Shinigami
05. Race
06. Hunter`s Soul
07. Complication
08. Eyes of a Murderer
09. Gleaming
10. Fellow Traveler
11. Everybody, Get Together! It`s a Murder Hotel!
12. Trickster Fox

Качество видео: WEBRip
Формат: MP4
Видео кодек: H.264
Аудио кодек: AAC
Видео: MPEG4 Video (H264) 480x272 23.976fps 511kbps
Аудио: AAC 44100Hz stereo 128kbps
Format : MPEG-4
Format profile : Base Media
Codec ID : isom (isom/avc1)
File size : 109 MiB
Duration : 23 min
Overall bit rate mode : Variable
Overall bit rate : 643 kb/s
Encoded date : UTC 2018-06-22 07:06:48
Tagged date : UTC 2018-06-22 07:06:48

Video
ID : 1
Format : AVC
Format/Info : Advanced Video Codec
Format profile : [email protected]
Format settings, CABAC : Yes
Format settings, ReFrames : 2 frames
Codec ID : avc1
Codec ID/Info : Advanced Video Coding
Duration : 23 min
Bit rate : 512 kb/s
Maximum bit rate : 2 918 kb/s
Width : 480 pixels
Height : 272 pixels
Display aspect ratio : 16:9
Frame rate mode : Constant
Frame rate : 23.976 (24000/1001) FPS
Original frame rate : 23.976 (23976/1000) FPS
Color space : YUV
Chroma subsampling : 4:2:0
Bit depth : 8 bits
Scan type : Progressive
Bits/(Pixel*Frame) : 0.164
Stream size : 86.7 MiB (80%)
Writing library : x264 core 65 r999kMod cc51047
Encoding settings : cabac=1 / ref=2 / deblock=1:-2:-1 / analyse=0x1:0x131 / me=umh / subme=7 / psy_rd=1.0:0.0 / mixed_ref=1 / me_range=16 / chroma_me=1 / trellis=2 / 8x8dct=0 / cqm=0 / deadzone=21,11 / chroma_qp_offset=-2 / threads=2 / thread_queue=2 / nr=0 / decimate=0 / mbaff=0 / bframes=3 / b_pyramid=0 / b_adapt=1 / b_bias=0 / direct=3 / wpredb=1 / keyint=250 / keyint_min=25 / scenecut=40(pre) / rc=2pass / bitrate=512 / ratetol=1.0 / qcomp=0.60 / qpmin=10 / qpmax=51 / qpstep=4 / cplxblur=20.0 / qblur=0.5 / ip_ratio=1.40 / pb_ratio=1.30 / aq=1:1.00
Encoded date : UTC 2018-06-22 07:06:48
Tagged date : UTC 2018-06-22 07:06:57

Audio
ID : 2
Format : AAC
Format/Info : Advanced Audio Codec
Format profile : LC
Codec ID : 40
Duration : 23 min
Bit rate mode : Variable
Bit rate : 128 kb/s
Maximum bit rate : 178 kb/s
Channel(s) : 2 channels
Channel positions : Front: L R
Sampling rate : 44.1 kHz
Frame rate : 43.066 FPS (1024 spf)
Compression mode : Lossy
Stream size : 21.8 MiB (20%)
Encoded date : UTC 2018-06-22 07:06:54
Tagged date : UTC 2018-06-22 07:06:57


Трекер:  [ 29-Июн-2018 14:06 ]

  

Скачать .torrent

Размер .torrent файла 14 KB


Размер: 1.28 GB
Хэш (hash) релиза: 52aaba3a97dc5c5e1bde97c850f65a95f6ad876c
Подписка на обновления:

Еще никто не оставлял запись к записи скачать торрент Золотое божество Golden Kamuy . Будь первым!

!Обратная связь