Télécharger Part 3 | Faster Pastor 11 This Ravished Rose The Maligned Monarch Beauty Killers Geschichte Des Antisemitismus Kittens | Running Man Episode 128

Скачать через торрент Операция «Шаровая молния» Entebbe бесплатно русская версия torrent активатор

Статистика раздачи
Размер:  3.61 GB   |    Зарегистрирован:  21 день   |    .torrent скачан:  28 раз   |   
Раздают:  1  
   
загрузка...
 
Автор Сообщение

Galfimbul

avatar Galfimbul


Операция «Шаровая молния» / Entebbe
«248 пассажиров. 7 дней. Один план спасения»

5.770 / 10 5.80 / 10
Год выпуска: 2018
Страна: США
Жанр: Триллер, драма, криминал, история
Продолжительность: 01:47:00

Перевод: Дублированный (iTunes)
Оригинальная аудиодорожка: Есть
Cубтитры: Английские
Режиссёр: Жозе Падилья
Сценарий: Грегори Бурк
Продюсер: Тим Беван, Эрик Феллнер, Рон Халперн
Оператор: Лула Карвальо
Композитор: Родриго Амаранте
Художник: Кейв Куинн, Чарло Далли, Сабина Дайгелер
Монтаж: Даниэл Резенде
В ролях: Розамунд Пайк, Эдди Марсан, Даниэль Брюль, Нонсо Анози, Бен Шнетцер, Камиль Лемешевский, Хуан Пабло Раба, Марк Иванир, Дени Меноше, Бронтис Ходоровски

Сборы в России: $89 967

Мировая премьера: 19 февраля 2018
Премьера (РФ): 5 апреля 2018, «MEGOGO Distribution»

Описание: В 1976 году самолет, следовавший из Тель-Авива в Париж, был захвачен террористами и совершил вынужденную посадку в аэропорту Энтеббе в Уганде с целью обмена заложников на осужденных преступников. Дипломатического решения вопроса за 7 дней найти не удалось. Тогда был разработан весьма изобретательный и крайне смелый план спасения…
Качество исходника: BDRemux (NNMClub)
Качество: BDRip
Тип: HD (720p)
Контейнер: M4V
Видео: H.264, 1280x544, 2.35:1, 3 500 Kbps, 23.976 fps

Аудио 1: Русский/Дублированный (iTunes), AAC / 2.0 / 160 Kbps / 48.0 KHz
Аудио 2: Английский/Оригинальная дорожка , AAC / 2.0 / 160 Kbps / 48.0 KHz
Аудио 3: Русский/Дублированный (iTunes), AC-3 / 5.1 / 384 Kbps / 48.0 KHz
Аудио 4: Английский/Оригинальная дорожка , AC-3 / 5.1 / 640 Kbps / 48.0 KHz

Субтитры: Английские полные
Sort Name: 7 Days In Entebbe
XID: Apple:vendor_id:2018-995013
contentID: 1354496912
Copyright: © 2017 Focus Features. All Rights Reserved.
Screenwriters: Грегори Бурк
Producers: Тим Беван, Эрик Феллнер, Рон Халперн
Director: Жозе Падилья
Cast: Розамунд Пайк, Эдди Марсан, Даниэль Брюль, Нонсо Анози, Бен Шнетцер, Камиль Лемешевский, Хуан Пабло Раба, Марк Иванир, Дени Меноше, Бронтис Ходоровски
Studio: Focus Features
Rating: 4
Long Description: В 1976 году самолет, следовавший из Тель-Авива в Париж, был захвачен террористами и совершил вынужденную посадку в аэропорту Энтеббе в Уганде с целью обмена заложников на осужденных преступников. Дипломатического решения вопроса за 7 дней найти не удалось. Тогда был разработан весьма изобретательный и крайне смелый план спасения...
Description: В 1976 году самолет, следовавший из Тель-Авива в Париж, был захвачен террористами и совершил вынужденную посадку в аэропорту Энтеббе в Уганде с целью обмена заложников на осужденных преступников. Дипломатического решения вопроса за 7 дней найти не удалось. Тогда был разработан весьма изобретательный и крайне смелый план спасения...
Release Date: 2018-02-19T08:00:00Z
Genre: Action & Adventure
Artist: José Padilha
Name: 7 Days In Entebbe
General
Complete name : /Users/imac/HandBrake/7 Days In Entebbe (720 HD).m4v
Format : MPEG-4
Codec ID : M4V
File size : 3.61 GiB
Duration : 1h 47mn
Overall bit rate mode : Variable
Overall bit rate : 4 831 Kbps
Movie name : 7 Days In Entebbe
Performer : José Padilha
Director : Жозе Падилья
Actor : Розамунд Пайк / Эдди Марсан / Даниэль Брюль / Нонсо Анози / Бен Шнетцер / Камиль Лемешевский / Хуан Пабло Раба / Марк Иванир / Дени Меноше / Бронтис Ходоровски
Screenplay by : Грегори Бурк
Producer : Тим Беван / Эрик Феллнер / Рон Халперн
Production studio : Focus Features
Genre : Action & Adventure
ContentType : Short Film
Description : В 1976 году самолет, следовавший из Тель-Авива в Париж, был захвачен террористами и совершил вынужденную посадку в аэропорту Энтеббе в Уганде с целью обмена заложников на осужденных преступников. Дипломатического решения вопроса за 7 дней найти не удалось. Тогда был разработан весьма изобретательный и крайне смелый план спасения...
Recorded date : UTC 2018-02-19 08:00:00
Encoded date : UTC 2018-06-29 10:07:53
Tagged date : UTC 2018-06-29 10:10:35
Copyright : © 2017 Focus Features. All Rights Reserved.
Cover : Yes
Rating : None
Title/Sort : 7 Days In Entebbe
LongDescription : В 1976 году самолет, следовавший из Тель-Авива в Париж, был захвачен террористами и совершил вынужденную посадку в аэропорту Энтеббе в Уганде с целью обмена заложников на осужденных преступников. Дипломатического решения вопроса за 7 дней найти не удалось. Тогда был разработан весьма изобретательный и крайне смелый план спасения...
HDVideo : Yes
AppleStoreCatalogID : 1354496912
Vendor : Apple:vendor_id:2018-995013
ContentRating : mpaa|PG-13|300|

Video #1
ID : 1
Format : AVC
Format/Info : Advanced Video Codec
Format profile : [email protected]
Format settings, CABAC : No
Format settings, ReFrames : 3 frames
Codec ID : avc1
Codec ID/Info : Advanced Video Coding
Duration : 1h 47mn
Source duration : 1h 47mn
Bit rate : 3 500 Kbps
Width : 1 280 pixels
Height : 544 pixels
Display aspect ratio : 2.35:1
Frame rate mode : Variable
Frame rate : 23.976 fps
Minimum frame rate : 23.974 fps
Maximum frame rate : 23.981 fps
Color space : YUV
Chroma subsampling : 4:2:0
Bit depth : 8 bits
Scan type : Progressive
Bits/(Pixel*Frame) : 0.210
Stream size : 2.61 GiB (72%)
Source stream size : 2.61 GiB (72%)
Title : Main Program
Writing library : x264 core 155 r2901 7d0ff22
Encoding settings : cabac=0 / ref=3 / deblock=1:-3:-3 / analyse=0x3:0x113 / me=umh / subme=9 / psy=1 / psy_rd=1.00:0.15 / mixed_ref=1 / me_range=32 / chroma_me=1 / trellis=0 / 8x8dct=1 / cqm=0 / deadzone=21,11 / fast_pskip=0 / chroma_qp_offset=-2 / threads=17 / lookahead_threads=1 / sliced_threads=0 / nr=0 / decimate=0 / interlaced=0 / bluray_compat=0 / constrained_intra=0 / bframes=3 / b_pyramid=0 / b_adapt=2 / b_bias=0 / direct=1 / weightb=0 / open_gop=0 / weightp=0 / keyint=240 / keyint_min=24 / scenecut=40 / intra_refresh=0 / rc_lookahead=40 / rc=2pass / mbtree=1 / bitrate=3500 / ratetol=1.0 / qcomp=0.65 / qpmin=0 / qpmax=69 / qpstep=4 / cplxblur=20.0 / qblur=0.5 / vbv_maxrate=9500 / vbv_bufsize=9500 / nal_hrd=none / filler=0 / ip_ratio=1.40 / aq=1:1.10
Language : English
Encoded date : UTC 2018-06-29 10:07:53
Tagged date : UTC 2018-06-29 10:08:01
Color range : Limited
Color primaries : BT.709
Transfer characteristics : BT.709
Matrix coefficients : BT.709

Video #2
ID : 8
Format : JPEG
Codec ID : jpeg
Duration : 1h 47mn
Bit rate mode : Variable
Bit rate : 707 bps
Width : 640 pixels
Height : 272 pixels
Display aspect ratio : 2.35:1
Frame rate mode : Variable
Frame rate : 0.003 fps
Minimum frame rate : 0.002 fps
Maximum frame rate : 0.010 fps
Color space : YUV
Chroma subsampling : 4:2:0
Bit depth : 8 bits
Compression mode : Lossy
Bits/(Pixel*Frame) : 1.354
Stream size : 576 KiB (0%)
Title : Chapter Images
Language : English
Encoded date : UTC 2018-06-29 10:08:10
Tagged date : UTC 2018-06-29 10:08:10

Audio #1
ID : 2
Format : AAC
Format/Info : Advanced Audio Codec
Format profile : LC
Codec ID : 40
Duration : 1h 46mn
Source duration : 1h 46mn
Bit rate mode : Variable
Bit rate : 151 Kbps
Maximum bit rate : 244 Kbps
Channel(s) : 2 channels
Channel positions : Front: L R
Sampling rate : 48.0 KHz
Compression mode : Lossy
Stream size : 115 MiB (3%)
Source stream size : 115 MiB (3%)
Title : Russian Stereo
Language : Russian
Encoded date : UTC 2018-06-29 10:07:53
Tagged date : UTC 2018-06-29 10:08:05

Audio #2
ID : 3
Format : AAC
Format/Info : Advanced Audio Codec
Format profile : LC
Codec ID : 40
Duration : 1h 47mn
Source duration : 1h 47mn
Bit rate mode : Variable
Bit rate : 152 Kbps
Maximum bit rate : 242 Kbps
Channel(s) : 2 channels
Channel positions : Front: L R
Sampling rate : 48.0 KHz
Compression mode : Lossy
Stream size : 117 MiB (3%)
Source stream size : 117 MiB (3%)
Title : English Stereo
Language : English
Encoded date : UTC 2018-06-29 10:07:53
Tagged date : UTC 2018-06-29 10:08:05

Audio #3
ID : 4
Format : AC-3
Format/Info : Audio Coding 3
Mode extension : CM (complete main)
Format settings, Endianness : Big
Codec ID : ac-3
Duration : 1h 46mn
Bit rate mode : Constant
Bit rate : 384 Kbps
Channel(s) : 6 channels
Channel positions : Front: L C R, Side: L R, LFE
Sampling rate : 48.0 KHz
Bit depth : 16 bits
Compression mode : Lossy
Stream size : 294 MiB (8%)
Title : Russian DD 5.1
Language : Russian
Encoded date : UTC 2018-06-29 10:07:53
Tagged date : UTC 2018-06-29 10:08:05

Audio #4
ID : 5
Format : AC-3
Format/Info : Audio Coding 3
Mode extension : CM (complete main)
Format settings, Endianness : Big
Codec ID : ac-3
Duration : 1h 47mn
Bit rate mode : Constant
Bit rate : 640 Kbps
Channel(s) : 6 channels
Channel positions : Front: L C R, Side: L R, LFE
Sampling rate : 48.0 KHz
Bit depth : 16 bits
Compression mode : Lossy
Stream size : 490 MiB (13%)
Title : English DD 5.1
Language : English
Encoded date : UTC 2018-06-29 10:07:53
Tagged date : UTC 2018-06-29 10:08:05

Text
ID : 6
Format : Timed Text
Muxing mode : sbtl
Codec ID : tx3g
Duration : 1h 42mn
Bit rate mode : Variable
Bit rate : 51 bps
Stream size : 38.3 KiB (0%)
Title : English full
Language : English
Encoded date : UTC 2018-06-29 10:07:53
Tagged date : UTC 2018-06-29 10:08:04

Menu #1
00:00:00.000 : 00:00:00.000
00:02:32.569 : 00:02:32.569
00:06:17.669 : 00:06:17.669
00:12:00.261 : 00:12:00.261
00:19:00.431 : 00:19:00.431
00:24:11.575 : 00:24:11.575
00:28:10.606 : 00:28:10.606
00:32:43.420 : 00:32:43.420
00:38:10.413 : 00:38:10.413
00:44:32.545 : 00:44:32.545
00:49:31.469 : 00:49:31.468
00:53:06.016 : 00:53:06.016
00:58:22.833 : 00:58:22.708
01:04:04.549 : 01:04:04.549
01:08:07.625 : 01:08:07.625
01:16:13.986 : 01:16:13.986
01:21:11.617 : 01:21:11.617
01:28:57.999 : 01:28:57.999
01:37:31.846 : 01:37:31.846
01:39:09.902 : 01:39:09.902

Menu #2
ID : 7
Codec ID : text
Duration : 1h 47mn
Language : English
Encoded date : UTC 2018-06-29 10:08:05
Tagged date : UTC 2018-06-29 10:08:05
Bit rate mode : CBR
00:00:00.000 : 00:00:00.000
00:02:32.569 : 00:02:32.569
00:06:17.669 : 00:06:17.669
00:12:00.261 : 00:12:00.261
00:19:00.431 : 00:19:00.431
00:24:11.575 : 00:24:11.575
00:28:10.606 : 00:28:10.606
00:32:43.420 : 00:32:43.420
00:38:10.413 : 00:38:10.413
00:44:32.545 : 00:44:32.545
00:49:31.469 : 00:49:31.468
00:53:06.016 : 00:53:06.016
00:58:22.833 : 00:58:22.708
01:04:04.549 : 01:04:04.549
01:08:07.625 : 01:08:07.625
01:16:13.986 : 01:16:13.986
01:21:11.617 : 01:21:11.617
01:28:57.999 : 01:28:57.999
01:37:31.846 : 01:37:31.846
01:39:09.902 : 01:39:09.902
x264 [info]: frame I:1362  Avg QP:14.00  size:101514
x264 [info]: frame P:52311 Avg QP:16.34  size: 32724
x264 [info]: frame B:100264 Avg QP:18.06  size:  9522
x264 [info]: consecutive B-frames:  2.9% 20.9% 30.1% 46.2%
x264 [info]: mb I  I16..4:  8.9% 63.1% 27.9%
x264 [info]: mb P  I16..4:  2.4%  5.1%  2.0%  P16..4: 44.2% 27.5% 11.7%  0.0%  0.0%    skip: 7.1%
x264 [info]: mb B  I16..4:  0.2%  0.6%  0.2%  B16..8: 49.0% 12.2%  1.8%  direct: 3.7%  skip:32.3%  L0:42.5% L1:50.8% BI: 6.7%
x264 [info]: 8x8 transform intra:56.2% inter:43.1%
x264 [info]: coded y,uvDC,uvAC intra: 76.0% 82.5% 68.4% inter: 24.9% 20.4% 12.9%
x264 [info]: i16 v,h,dc,p: 70%  9%  7% 14%
x264 [info]: i8 v,h,dc,ddl,ddr,vr,hd,vl,hu: 10%  7%  8% 11% 15% 15% 13% 12% 10%
x264 [info]: i4 v,h,dc,ddl,ddr,vr,hd,vl,hu: 10%  7%  5% 12% 17% 16% 13% 11%  9%
x264 [info]: i8c dc,h,v,p: 54% 16% 18% 12%
x264 [info]: ref P L0: 69.4% 18.0% 12.6%
x264 [info]: ref B L0: 77.5% 22.5%
x264 [info]: kb/s:3494.86

Релиз подготовлен для просмотра на Apple TV, iPad, iPhone, iPod Touch.
Для просмотра данного релиза на компьютере с ОС Windows рекомендуется использовать VLC media player

Трекер:  [ 29-Июн-2018 13:36 ]

  

Скачать .torrent

Размер .torrent файла 36 KB


Размер: 3.61 GB
Хэш (hash) релиза: 9bfb2046bc4941abda62c3a9b2e71a5160553265

Еще никто не оставлял запись к записи скачать торрент Операция «Шаровая молния» Entebbe . Будь первым!

!Обратная связь