Bruno Mars | Дикий / Braven (2018)... | Арт-хаус / Авторское кино

Скачать через торрент Супер Монстры Super Monsters Фильм бесплатно в хорошем качестве torrent

Скачивайте на UnionPeer.org фильмы через торрент без регистрации. Новинки кино в хорошем качестве через торрент. На UnionPeer.org можно скачать через торрент фильмы 2014 и 2015 годов. Самые новые фильмы.

Скачать торрент Супер Монстры Super Monsters бесплатно через .torrent фильм мультфильм сериал

Статистика раздачи
Размер:  7.61 GB   |    Зарегистрирован:  24 дня   |    .torrent скачан:  25 раз   |   
Раздают:  1  
   
загрузка...
 
Автор Сообщение

Galfimbul

avatar Galfimbul


Супер Монстры / Super Monsters

Страна: США, Канада
Жанр: Мультсериал, детский, комедия, семейный, познавательный
Продолжительность серии: 10 x ~ 00:22:00
Год выпуска: 2017
Перевод: Профессиональный (дублированный)

Режиссёр: Ави Арад
Роли озвучивали: Кэтлин Барр, Винсент Тонг, Ян Джеймс Корлетт, Бритт МакКиллип, Андреа Либман, Алессандро Джулиани, Элиз Малоуэй, Николь Энтони, Эрин Мэтьюз, Диана Каарина

Описание: Дети дошкольного возраста, родители которых являются самыми известными монстрами в мире, пытаются овладеть своими особыми способностями при подготовке к детскому саду. Юные зрители познакомятся с шестью главными героями, днем пребывающими в человеческом облике, а ночью превращающимися в игривых монстров. Из каждого эпизода можно будет извлечь полезные уроки вежливости и взаимодействия друг с другом.



Качество: WEB-DL 1080p
Формат: MKV
Видео: MPEG-4 AVC, 1920x1080 [16:9], 23.976 fps, ~ 4500 Kbps
Аудио 1: [Русский] AC3, 48 kHz, 6 ch, 384 Kbps
Аудио 2: [Английский] AC3, 48 kHz, 6 ch, 384 Kbps
Субтитры: Русские (Forced, Full), английские (Full SDH)
Релиз CasStudio - BenderBEST
ОбщееУникальный идентификатор : 314713984326614111684375183872944613553 (0xECC3B568FC549C9E704C60ECFCE1A8B1)Полное имя : S:\Новая папка\Super.Monsters.S01.1080p.NF.WEB-DL.Rus.Eng_CasStudio\Super.Monsters.S01E01.Meet.the.Super.Monsters..Vampires.Dont.Dance.1080p.NF.WEB-DL.Rus.Eng_CasStudio.mkvФормат : MatroskaВерсия формата : Version 4 / Version 2Размер файла : 782 МбайтПродолжительность : 23 м.Режим общего битрейта : ПеременныйОбщий поток : 4728 Кбит/секДата кодирования : UTC 2018-06-19 03:23:21Программа кодирования : mkvmerge v24.0.0 ('Beyond The Pale') 64-bitБиблиотека кодирования : libebml v1.3.6 + libmatroska v1.4.9

ВидеоИдентификатор : 1Формат : AVCФормат/Информация : Advanced Video CodecПрофиль формата : [email protected]Параметр CABAC формата : ДаПараметр ReFrames формата : 3 кадраИдентификатор кодека : V_MPEG4/ISO/AVCПродолжительность : 23 м.Вид битрейта : ПеременныйБитрейт : 3955 Кбит/секНоминальный битрейт : 4220 Кбит/секМаксимальный битрейт : 6330 Кбит/секШирина : 1920 пикселейВысота : 1080 пикселейСоотношение сторон : 16:9Режим частоты кадров : ПостоянныйЧастота кадров : 23,976 (24000/1001) кадра/секЦветовое пространство : YUVСубдискретизация насыщенности : 4:2:0Битовая глубина : 8 битТип развёртки : ПрогрессивнаяБит/(Пиксели*Кадры) : 0.080Размер потока : 654 Мбайт (84%)Библиотека кодирования : x264 core 118Настройки программы : cabac=1 / ref=3 / deblock=1:0:0 / analyse=0x1:0x111 / me=umh / subme=10 / psy=1 / psy_rd=1.00:0.00 / mixed_ref=1 / me_range=24 / chroma_me=1 / trellis=2 / 8x8dct=0 / cqm=0 / deadzone=21,11 / fast_pskip=1 / chroma_qp_offset=-2 / threads=8 / sliced_threads=0 / nr=0 / decimate=1 / interlaced=0 / bluray_compat=0 / constrained_intra=0 / bframes=2 / b_pyramid=0 / b_adapt=2 / b_bias=0 / direct=3 / weightb=1 / open_gop=0 / weightp=2 / keyint=48 / keyint_min=25 / scenecut=0 / intra_refresh=0 / rc_lookahead=0 / rc=2pass / mbtree=1 / bitrate=4220 / ratetol=1.0 / qcomp=0.50 / qpmin=6 / qpmax=51 / qpstep=4 / cplxblur=20.0 / qblur=0.5 / vbv_maxrate=6330 / vbv_bufsize=8440 / nal_hrd=vbr / ip_ratio=1.40 / aq=1:1.00Default : ДаForced : Нет

Аудио #1Идентификатор : 2Формат : AC-3Формат/Информация : Audio Coding 3Расширение режима : CM (complete main)Параметр Endianness формата : BigИдентификатор кодека : A_AC3Продолжительность : 23 м.Вид битрейта : ПостоянныйБитрейт : 384 Кбит/секКаналы : 6 каналовРасположение каналов : Front: L C R, Side: L R, LFEЧастота : 48,0 КГцЧастота кадров : 31,250 кадров/сек (1536 spf)Метод сжатия : С потерямиРазмер потока : 63,5 Мбайт (8%)Язык : RussianDefault : ДаForced : Нет

Аудио #2Идентификатор : 3Формат : AC-3Формат/Информация : Audio Coding 3Расширение режима : CM (complete main)Параметр Endianness формата : BigИдентификатор кодека : A_AC3Продолжительность : 23 м.Вид битрейта : ПостоянныйБитрейт : 384 Кбит/секКаналы : 6 каналовРасположение каналов : Front: L C R, Side: L R, LFEЧастота : 48,0 КГцЧастота кадров : 31,250 кадров/сек (1536 spf)Метод сжатия : С потерямиРазмер потока : 63,5 Мбайт (8%)Заголовок : EnglishЯзык : EnglishDefault : НетForced : Нет

Текст #1Идентификатор : 4Формат : UTF-8Идентификатор кодека : S_TEXT/UTF8Идентификатор кодека/Информация : UTF-8 Plain TextПродолжительность : 3 с. 921 мс.Битрейт : 91 бит/секCount of elements : 1Размер потока : 45,0 байт (0%)Заголовок : ForcedЯзык : RussianDefault : ДаForced : Да

Текст #2Идентификатор : 5Формат : UTF-8Идентификатор кодека : S_TEXT/UTF8Идентификатор кодека/Информация : UTF-8 Plain TextПродолжительность : 20 м.Битрейт : 78 бит/секCount of elements : 388Размер потока : 12,0 Кбайт (0%)Заголовок : SDHЯзык : EnglishDefault : НетForced : Нет

Текст #3Идентификатор : 6Формат : UTF-8Идентификатор кодека : S_TEXT/UTF8Идентификатор кодека/Информация : UTF-8 Plain TextПродолжительность : 20 м.Битрейт : 113 бит/секCount of elements : 309Размер потока : 17,4 Кбайт (0%)Язык : ArabicDefault : НетForced : Нет

Текст #4Идентификатор : 7Формат : UTF-8Идентификатор кодека : S_TEXT/UTF8Идентификатор кодека/Информация : UTF-8 Plain TextПродолжительность : 20 м.Битрейт : 122 бит/секCount of elements : 328Размер потока : 18,7 Кбайт (0%)Язык : BulgarianDefault : НетForced : Нет

Текст #5Идентификатор : 8Формат : UTF-8Идентификатор кодека : S_TEXT/UTF8Идентификатор кодека/Информация : UTF-8 Plain TextПродолжительность : 20 м.Битрейт : 63 бит/секCount of elements : 270Размер потока : 9,72 Кбайт (0%)Язык : DanishDefault : НетForced : Нет

Текст #6Идентификатор : 9Формат : UTF-8Идентификатор кодека : S_TEXT/UTF8Идентификатор кодека/Информация : UTF-8 Plain TextПродолжительность : 20 м.Битрейт : 64 бит/секCount of elements : 299Размер потока : 9,89 Кбайт (0%)Язык : GermanDefault : НетForced : Нет

Текст #7Идентификатор : 10Формат : UTF-8Идентификатор кодека : S_TEXT/UTF8Идентификатор кодека/Информация : UTF-8 Plain TextПродолжительность : 20 м.Битрейт : 112 бит/секCount of elements : 294Размер потока : 17,2 Кбайт (0%)Язык : GreekDefault : НетForced : Нет

Текст #8Идентификатор : 11Формат : UTF-8Идентификатор кодека : S_TEXT/UTF8Идентификатор кодека/Информация : UTF-8 Plain TextПродолжительность : 20 м.Битрейт : 59 бит/секCount of elements : 303Размер потока : 9,15 Кбайт (0%)Язык : SpanishDefault : НетForced : Нет

Текст #9Идентификатор : 12Формат : UTF-8Идентификатор кодека : S_TEXT/UTF8Идентификатор кодека/Информация : UTF-8 Plain TextПродолжительность : 20 м.Битрейт : 60 бит/секCount of elements : 303Размер потока : 9,21 Кбайт (0%)Заголовок : EuropeanЯзык : SpanishDefault : НетForced : Нет

Текст #10Идентификатор : 13Формат : UTF-8Идентификатор кодека : S_TEXT/UTF8Идентификатор кодека/Информация : UTF-8 Plain TextПродолжительность : 20 м.Битрейт : 59 бит/секCount of elements : 259Размер потока : 9,17 Кбайт (0%)Язык : FinnishDefault : НетForced : Нет

Текст #11Идентификатор : 14Формат : UTF-8Идентификатор кодека : S_TEXT/UTF8Идентификатор кодека/Информация : UTF-8 Plain TextПродолжительность : 20 м.Битрейт : 66 бит/секCount of elements : 304Размер потока : 10,2 Кбайт (0%)Язык : FrenchDefault : НетForced : Нет

Текст #12Идентификатор : 15Формат : UTF-8Идентификатор кодека : S_TEXT/UTF8Идентификатор кодека/Информация : UTF-8 Plain TextПродолжительность : 20 м.Битрейт : 102 бит/секCount of elements : 306Размер потока : 15,7 Кбайт (0%)Язык : HebrewDefault : НетForced : Нет

Текст #13Идентификатор : 16Формат : UTF-8Идентификатор кодека : S_TEXT/UTF8Идентификатор кодека/Информация : UTF-8 Plain TextПродолжительность : 20 м.Битрейт : 149 бит/секCount of elements : 304Размер потока : 22,9 Кбайт (0%)Язык : HindiDefault : НетForced : Нет

Текст #14Идентификатор : 17Формат : UTF-8Идентификатор кодека : S_TEXT/UTF8Идентификатор кодека/Информация : UTF-8 Plain TextПродолжительность : 20 м.Битрейт : 60 бит/секCount of elements : 310Размер потока : 9,25 Кбайт (0%)Язык : IndonesianDefault : НетForced : Нет

Текст #15Идентификатор : 18Формат : UTF-8Идентификатор кодека : S_TEXT/UTF8Идентификатор кодека/Информация : UTF-8 Plain TextПродолжительность : 20 м.Битрейт : 66 бит/секCount of elements : 309Размер потока : 10,2 Кбайт (0%)Язык : ItalianDefault : НетForced : Нет

Текст #16Идентификатор : 19Формат : UTF-8Идентификатор кодека : S_TEXT/UTF8Идентификатор кодека/Информация : UTF-8 Plain TextПродолжительность : 20 м.Битрейт : 82 бит/секCount of elements : 348Размер потока : 12,7 Кбайт (0%)Язык : JapaneseDefault : НетForced : Нет

Текст #17Идентификатор : 20Формат : UTF-8Идентификатор кодека : S_TEXT/UTF8Идентификатор кодека/Информация : UTF-8 Plain TextПродолжительность : 20 м.Битрейт : 62 бит/секCount of elements : 305Размер потока : 9,53 Кбайт (0%)Язык : KoreanDefault : НетForced : Нет

Текст #18Идентификатор : 21Формат : UTF-8Идентификатор кодека : S_TEXT/UTF8Идентификатор кодека/Информация : UTF-8 Plain TextПродолжительность : 20 м.Битрейт : 60 бит/секCount of elements : 291Размер потока : 9,21 Кбайт (0%)Язык : Norwegian BokmalDefault : НетForced : Нет

Текст #19Идентификатор : 22Формат : UTF-8Идентификатор кодека : S_TEXT/UTF8Идентификатор кодека/Информация : UTF-8 Plain TextПродолжительность : 20 м.Битрейт : 61 бит/секCount of elements : 268Размер потока : 9,40 Кбайт (0%)Язык : DutchDefault : НетForced : Нет

Текст #20Идентификатор : 23Формат : UTF-8Идентификатор кодека : S_TEXT/UTF8Идентификатор кодека/Информация : UTF-8 Plain TextПродолжительность : 20 м.Битрейт : 60 бит/секCount of elements : 296Размер потока : 9,29 Кбайт (0%)Язык : PolishDefault : НетForced : Нет

Текст #21Идентификатор : 24Формат : UTF-8Идентификатор кодека : S_TEXT/UTF8Идентификатор кодека/Информация : UTF-8 Plain TextПродолжительность : 20 м.Битрейт : 57 бит/секCount of elements : 289Размер потока : 8,78 Кбайт (0%)Язык : PortugueseDefault : НетForced : Нет

Текст #22Идентификатор : 25Формат : UTF-8Идентификатор кодека : S_TEXT/UTF8Идентификатор кодека/Информация : UTF-8 Plain TextПродолжительность : 20 м.Битрейт : 63 бит/секCount of elements : 293Размер потока : 9,66 Кбайт (0%)Заголовок : BrazilianЯзык : PortugueseDefault : НетForced : Нет

Текст #23Идентификатор : 26Формат : UTF-8Идентификатор кодека : S_TEXT/UTF8Идентификатор кодека/Информация : UTF-8 Plain TextПродолжительность : 20 м.Битрейт : 64 бит/секCount of elements : 300Размер потока : 9,88 Кбайт (0%)Язык : RomanianDefault : НетForced : Нет

Текст #24Идентификатор : 27Формат : UTF-8Идентификатор кодека : S_TEXT/UTF8Идентификатор кодека/Информация : UTF-8 Plain TextПродолжительность : 20 м.Битрейт : 107 бит/секCount of elements : 302Размер потока : 16,4 Кбайт (0%)Язык : RussianDefault : НетForced : Нет

Текст #25Идентификатор : 28Формат : UTF-8Идентификатор кодека : S_TEXT/UTF8Идентификатор кодека/Информация : UTF-8 Plain TextПродолжительность : 20 м.Битрейт : 56 бит/секCount of elements : 258Размер потока : 8,58 Кбайт (0%)Язык : SwedishDefault : НетForced : Нет

Текст #26Идентификатор : 29Формат : UTF-8Идентификатор кодека : S_TEXT/UTF8Идентификатор кодека/Информация : UTF-8 Plain TextПродолжительность : 20 м.Битрейт : 161 бит/секCount of elements : 305Размер потока : 24,8 Кбайт (0%)Язык : ThaiDefault : НетForced : Нет

Текст #27Идентификатор : 30Формат : UTF-8Идентификатор кодека : S_TEXT/UTF8Идентификатор кодека/Информация : UTF-8 Plain TextПродолжительность : 20 м.Битрейт : 69 бит/секCount of elements : 304Размер потока : 10,6 Кбайт (0%)Язык : TurkishDefault : НетForced : Нет

Текст #28Идентификатор : 31Формат : UTF-8Идентификатор кодека : S_TEXT/UTF8Идентификатор кодека/Информация : UTF-8 Plain TextПродолжительность : 20 м.Битрейт : 90 бит/секCount of elements : 305Размер потока : 13,8 Кбайт (0%)Язык : VietnameseDefault : НетForced : Нет

Текст #29Идентификатор : 32Формат : UTF-8Идентификатор кодека : S_TEXT/UTF8Идентификатор кодека/Информация : UTF-8 Plain TextПродолжительность : 20 м.Битрейт : 59 бит/секCount of elements : 305Размер потока : 9,05 Кбайт (0%)Заголовок : SimplifiedЯзык : ChineseDefault : НетForced : Нет

Текст #30Идентификатор : 33Формат : UTF-8Идентификатор кодека : S_TEXT/UTF8Идентификатор кодека/Информация : UTF-8 Plain TextПродолжительность : 20 м.Битрейт : 58 бит/секCount of elements : 305Размер потока : 8,92 Кбайт (0%)Заголовок : TraditionalЯзык : ChineseDefault : НетForced : Нет


Трекер:  [ 28-Июн-2018 19:54 ]

  

Скачать .torrent

Размер .torrent файла 40 KB


Размер: 7.61 GB
Хэш (hash) релиза: 4724050265090be934d00e57c93b1d9d12d4c1a7
Подписка на обновления:

Еще никто не оставлял запись к записи скачать торрент Супер Монстры Super Monsters . Будь первым!

!Обратная связь