Ken Stott | Loaded HDTV | God of Martial Arts: chapter 34.3

Скачать через торрент Рэмпейдж Rampage бесплатно русская версия torrent активатор

Статистика раздачи
Размер:  1.17 GB   |    Зарегистрирован:  22 дня   |    .torrent скачан:  26 раз   |   
Раздают:  1  
   
загрузка...
 
Автор Сообщение

Galfimbul

avatar Galfimbul


Рэмпейдж / Rampage
«Больше, чем скала»

6.242 / 10 6.30 / 10
Год выпуска: 2018
Страна: США
Жанр: Фантастика, боевик, приключения
Продолжительность: 01:47:14

Перевод: Дублированный (iTunes)
Оригинальная аудиодорожка: Есть
Cубтитры: Русские форсированные, Русские, Английские
Режиссёр: Брэд Пейтон
Сценарий: Райан Ингл, Карлтон Кьюз, Райан Кондал
Продюсер: Ричард Бренер, Майкл Диско, Тоби Эммерих
Оператор: Джарон Пресан
Композитор: Эндрю Локингтон
Художник: Бэрри Чусид, Лорел Бергман, Эллиотт Глик
Монтаж: Боб Дюксэй, Джим Мэй
В ролях: Дуэйн Джонсон, Наоми Харрис, Малин Акерман, Джеффри Дин Морган, Джейк Лэси, Джо Манганьелло, Марли Шелтон, П.Дж. Бирн, Деметриус Гросс, Джек Куэйд

Бюджет: $120 000 000
Сборы в России: $6 067 350

Мировая премьера: 11 апреля 2018
Премьера (РФ): 12 апреля 2018, «Каро-Премьер»

Цифровой релиз: 27 июня 2018, «Warner Bros.»

Описание: Приматолог Дэвис Окойи предпочитает держаться подальше от людей и дружит с Джорджем, удивительно умным самцом гориллы, которого он воспитывал с самого рождения. Но вышедший из-под контроля генетический эксперимент превращает послушную обезьяну в яростного монстра. Более того, вскоре обнаруживается, что существуют и другие модифицированные хищники. Пока свежесозданные чудовища превращают в руины Северную Америку, стирая с лица Земли все, что попадается у них на пути, Окойи вместе с опальным генным инженером пытается изобрести антидот, прорываясь по бесконечному полю боя не только, чтобы предотвратить глобальную катастрофу, но и спасти бесстрашное существо, которое когда-то было его другом.
Качество исходника: WEB-DL 1080p (BlueBird)
Качество: WEB-DLRip
Тип: SD (480p)
Контейнер: M4V
Видео: H.264, 640x356 анаморф 852х356, 2.40:1, 1 300 Kbps, 23.976 fps

Аудио 1: Русский/Дублированный (iTunes), AAC / 2.0 / 128 Kbps / 44.1 KHz
Аудио 2: Английский/Оригинальная дорожка , AAC / 2.0 / 128 Kbps / 48.0 KHz

Субтитры 1: Русские форсированные
Субтитры 2: Русские полные
Субтитры 3: Английские полные
Sort Name: Rampage
XID: Apple:vendor_id:2018-666865
contentID: 1363164999
Copyright: © 2018 Warner Bros. Entertainment Inc.
Screenwriters: Райан Ингл, Карлтон Кьюз, Райан Кондал
Producers: Джанет Хили, Бретт Хоффман, Кристофер Меледандри
Director: Брэд Пейтон
Cast: Дуэйн Джонсон, Джеффри Дин Морган, Малин Акерман, Джо Манганьелло, Марли Шелтон, Уилл Юн Ли, Наоми Харрис, Джек Куэйд, Джейк Лэси, Бриэнн Хилл
Studio: Warner Bros.
Rating: 4
Long Description: Приматолог Дэвис Окойи предпочитает держаться подальше от людей и дружит с Джорджем, удивительно умным самцом гориллы, которого он воспитывал с самого рождения. Но вышедший из-под контроля генетический эксперимент превращает послушную обезьяну в яростного монстра. Более того, вскоре обнаруживается, что существуют и другие модифицированные хищники. Пока свежесозданные чудовища превращают в руины Северную Америку, стирая с лица Земли все, что попадается у них на пути, Окойи вместе с опальным генным инженером пытается изобрести антидот, прорываясь по бесконечному полю боя не только, чтобы предотвратить глобальную катастрофу, но и спасти бесстрашное существо, которое когда-то было его другом.
Description: Приматолог Дэвис Окойи предпочитает держаться подальше от людей и дружит с Джорджем, удивительно умным самцом гориллы, которого он воспитывал с самого рождения. Но вышедший из-под контроля генетический эксперимент превращает послушную обезьяну в яростного монстра. Более того, вскоре обнаруживается, что существуют и другие модифицированные хищники.
Release Date: 2018-04-13T07:00:00Z
Genre: Action & Adventure
Artist: Brad Peyton
Name: Rampage (2018)
General
Complete name : /Users/imac/HandBrake/Rampage.(480p).(pk).m4v
Format : MPEG-4
Codec ID : M4V
File size : 1.17 GiB
Duration : 1h 47mn
Overall bit rate mode : Variable
Overall bit rate : 1 557 Kbps
Movie name : Rampage (2018)
Performer : Brad Peyton
Director : Брэд Пейтон
Actor : Дуэйн Джонсон / Джеффри Дин Морган / Малин Акерман / Джо Манганьелло / Марли Шелтон / Уилл Юн Ли / Наоми Харрис / Джек Куэйд / Джейк Лэси / Бриэнн Хилл
Screenplay by : Райан Ингл / Карлтон Кьюз / Райан Кондал
Producer : Джанет Хили / Бретт Хоффман / Кристофер Меледандри
Production studio : Warner Bros.
Genre : Action & Adventure
ContentType : Short Film
Description : Приматолог Дэвис Окойи предпочитает держаться подальше от людей и дружит с Джорджем, удивительно умным самцом гориллы, которого он воспитывал с самого рождения. Но вышедший из-под контроля генетический эксперимент превращает послушную обезьяну в яростного монстра. Более того, вскоре обнаруживается, что существуют и другие модифицированные хищники.
Recorded date : UTC 2018-04-13 07:00:00
Encoded date : UTC 2018-06-28 10:17:08
Tagged date : UTC 2018-06-28 10:19:16
Copyright : © 2018 Warner Bros. Entertainment Inc.
Cover : Yes
Rating : None
Title/Sort : Rampage
LongDescription : Приматолог Дэвис Окойи предпочитает держаться подальше от людей и дружит с Джорджем, удивительно умным самцом гориллы, которого он воспитывал с самого рождения. Но вышедший из-под контроля генетический эксперимент превращает послушную обезьяну в яростного монстра. Более того, вскоре обнаруживается, что существуют и другие модифицированные хищники. Пока свежесозданные чудовища превращают в руины Северную Америку, стирая с лица Земли все, что попадается у них на пути, Окойи вместе с опальным генным инженером пытается изобрести антидот, прорываясь по бесконечному полю боя не только, чтобы предотвратить глобальную катастрофу, но и спасти бесстрашное существо, которое когда-то было его другом.
AppleStoreCatalogID : 1363164999
Vendor : Apple:vendor_id:2018-666865
ContentRating : mpaa|PG-13|300|

Video #1
ID : 1
Format : AVC
Format/Info : Advanced Video Codec
Format profile : [email protected]
Format settings, CABAC : No
Format settings, ReFrames : 2 frames
Codec ID : avc1
Codec ID/Info : Advanced Video Coding
Duration : 1h 47mn
Bit rate : 1 300 Kbps
Width : 640 pixels
Height : 356 pixels
Display aspect ratio : 2.40:1
Frame rate mode : Variable
Frame rate : 23.976 fps
Minimum frame rate : 23.974 fps
Maximum frame rate : 23.981 fps
Color space : YUV
Chroma subsampling : 4:2:0
Bit depth : 8 bits
Scan type : Progressive
Bits/(Pixel*Frame) : 0.238
Stream size : 997 MiB (83%)
Title : Main Program
Writing library : x264 core 155 r2901 7d0ff22
Encoding settings : cabac=0 / ref=2 / deblock=1:0:0 / analyse=0x1:0x111 / me=umh / subme=6 / psy=1 / psy_rd=1.00:0.00 / mixed_ref=1 / me_range=16 / chroma_me=1 / trellis=0 / 8x8dct=0 / cqm=0 / deadzone=21,11 / fast_pskip=1 / chroma_qp_offset=-2 / threads=11 / lookahead_threads=1 / sliced_threads=0 / nr=0 / decimate=1 / interlaced=0 / bluray_compat=0 / constrained_intra=0 / bframes=0 / weightp=0 / keyint=240 / keyint_min=24 / scenecut=40 / intra_refresh=0 / rc_lookahead=40 / rc=2pass / mbtree=1 / bitrate=1300 / ratetol=1.0 / qcomp=0.60 / qpmin=0 / qpmax=69 / qpstep=4 / cplxblur=20.0 / qblur=0.5 / vbv_maxrate=5000 / vbv_bufsize=5000 / nal_hrd=none / filler=0 / ip_ratio=1.40 / aq=1:1.00
Language : English
Encoded date : UTC 2018-06-28 10:17:08
Tagged date : UTC 2018-06-28 10:17:13
Color range : Limited
Color primaries : BT.709
Transfer characteristics : BT.709
Matrix coefficients : BT.709

Video #2
ID : 8
Format : JPEG
Codec ID : jpeg
Duration : 1h 47mn
Bit rate mode : Variable
Bit rate : 482 bps
Width : 640 pixels
Height : 267 pixels
Display aspect ratio : 2.40:1
Frame rate mode : Variable
Frame rate : 0.002 fps
Minimum frame rate : 0.001 fps
Maximum frame rate : 0.002 fps
Color space : YUV
Chroma subsampling : 4:2:0
Bit depth : 8 bits
Compression mode : Lossy
Bits/(Pixel*Frame) : 1.410
Stream size : 323 KiB (0%)
Title : Chapter Images
Language : English
Encoded date : UTC 2018-06-28 10:17:18
Tagged date : UTC 2018-06-28 10:17:18

Audio #1
ID : 2
Format : AAC
Format/Info : Advanced Audio Codec
Format profile : LC
Codec ID : 40
Duration : 1h 47mn
Source duration : 1h 47mn
Bit rate mode : Variable
Bit rate : 125 Kbps
Maximum bit rate : 200 Kbps
Channel(s) : 2 channels
Channel positions : Front: L R
Sampling rate : 44.1 KHz
Compression mode : Lossy
Stream size : 96.1 MiB (8%)
Source stream size : 96.1 MiB (8%)
Title : Russian Stereo
Language : Russian
Encoded date : UTC 2018-06-28 10:17:08
Tagged date : UTC 2018-06-28 10:17:16

Audio #2
ID : 3
Format : AAC
Format/Info : Advanced Audio Codec
Format profile : LC
Codec ID : 40
Duration : 1h 47mn
Source duration : 1h 47mn
Bit rate mode : Variable
Bit rate : 125 Kbps
Maximum bit rate : 186 Kbps
Channel(s) : 2 channels
Channel positions : Front: L R
Sampling rate : 48.0 KHz
Compression mode : Lossy
Stream size : 96.1 MiB (8%)
Source stream size : 96.1 MiB (8%)
Title : English Stereo
Language : English
Encoded date : UTC 2018-06-28 10:17:08
Tagged date : UTC 2018-06-28 10:17:16

Text #1
ID : 4
Format : Timed Text
Muxing mode : sbtl
Codec ID : tx3g
Duration : 1h 32mn
Bit rate mode : Variable
Bit rate : 3 bps
Stream size : 1.81 KiB (0%)
Title : Russian forced
Language : Russian
Encoded date : UTC 2018-06-28 10:17:08
Tagged date : UTC 2018-06-28 10:17:15

Text #2
ID : 5
Format : Timed Text
Muxing mode : sbtl
Codec ID : tx3g
Duration : 1h 47mn
Bit rate mode : Variable
Bit rate : 93 bps
Stream size : 72.9 KiB (0%)
Title : Russian full
Language : Russian
Encoded date : UTC 2018-06-28 10:17:08
Tagged date : UTC 2018-06-28 10:17:16

Text #3
ID : 6
Format : Timed Text
Muxing mode : sbtl
Codec ID : tx3g
Duration : 1h 39mn
Bit rate mode : Variable
Bit rate : 65 bps
Stream size : 47.0 KiB (0%)
Title : English full
Language : English
Encoded date : UTC 2018-06-28 10:17:08
Tagged date : UTC 2018-06-28 10:17:16

Menu #1
00:00:00.000 : 1
00:12:58.000 : 2
00:19:56.000 : 3
00:29:53.000 : 4
00:40:35.000 : 5
00:49:10.000 : 6
01:02:38.000 : 7
01:10:37.000 : 8
01:20:10.000 : 9
01:29:23.000 : 10
01:39:42.000 : 11

Menu #2
ID : 7
Codec ID : text
Duration : 1h 47mn
Language : English
Encoded date : UTC 2018-06-28 10:17:16
Tagged date : UTC 2018-06-28 10:17:16
00:00:00.000 : 1
00:12:58.000 : 2
00:19:56.000 : 3
00:29:53.000 : 4
00:40:35.000 : 5
00:49:10.000 : 6
01:02:38.000 : 7
01:10:37.000 : 8
01:20:10.000 : 9
01:29:23.000 : 10
01:39:42.000 : 11
Bit rate mode : VBR
x264 [info]: frame I:3272  Avg QP:17.35  size: 21338
x264 [info]: frame P:150991 Avg QP:20.14  size:  6462
x264 [info]: mb I  I16..4: 24.1%  0.0% 75.9%
x264 [info]: mb P  I16..4:  1.4%  0.0%  4.4%  P16..4: 44.9% 21.8%  8.6%  0.0%  0.0%    skip:18.9%
x264 [info]: coded y,uvDC,uvAC intra: 65.8% 65.7% 33.0% inter: 27.8% 15.1% 1.9%
x264 [info]: i16 v,h,dc,p: 40% 16%  9% 35%
x264 [info]: i4 v,h,dc,ddl,ddr,vr,hd,vl,hu: 37% 13% 13%  6%  7%  8%  5%  7%  4%
x264 [info]: i8c dc,h,v,p: 54% 14% 26%  6%
x264 [info]: ref P L0: 75.7% 24.3%
x264 [info]: kb/s:1300.05

Релиз подготовлен для просмотра на Apple TV, iPad, iPhone, iPod Touch.
Для просмотра данного релиза на компьютере с ОС Windows рекомендуется использовать VLC media player

Трекер:  [ 28-Июн-2018 13:36 ]

  

Скачать .torrent

Размер .torrent файла 23 KB


Размер: 1.17 GB
Хэш (hash) релиза: 1608820550a24a658ce0a643cb1de076d2ecd968

Еще никто не оставлял запись к записи скачать торрент Рэмпейдж Rampage . Будь первым!

!Обратная связь