A Beginners Guide to Excel 2011 for Mac | Adventure Time S09E16 HDTV x264-W4F [eztv] | Kevin (Probably) Saves the World

Скачать через торрент [iPad] Рэмпейдж Rampage бесплатно русская версия torrent активатор

Статистика раздачи
Размер:  1.84 GB   |    Зарегистрирован:  18 дней   |    .torrent скачан:  30 раз   |   
Раздают:  1  
   
загрузка...
 
Автор Сообщение

Galfimbul

avatar Galfimbul


Рэмпейдж / Rampage
«Больше, чем скала»

6.242 / 10 6.30 / 10
Год выпуска: 2018
Страна: США
Жанр: Фантастика, боевик, приключения
Продолжительность: 01:47:14

Перевод: Дублированный (iTunes)
Оригинальная аудиодорожка: Есть
Cубтитры: Русские форсированные, Русские, Английские
Режиссёр: Брэд Пейтон
Сценарий: Райан Ингл, Карлтон Кьюз, Райан Кондал
Продюсер: Ричард Бренер, Майкл Диско, Тоби Эммерих
Оператор: Джарон Пресан
Композитор: Эндрю Локингтон
Художник: Бэрри Чусид, Лорел Бергман, Эллиотт Глик
Монтаж: Боб Дюксэй, Джим Мэй
В ролях: Дуэйн Джонсон, Наоми Харрис, Малин Акерман, Джеффри Дин Морган, Джейк Лэси, Джо Манганьелло, Марли Шелтон, П.Дж. Бирн, Деметриус Гросс, Джек Куэйд

Бюджет: $120 000 000
Сборы в России: $6 067 350

Мировая премьера: 11 апреля 2018
Премьера (РФ): 12 апреля 2018, «Каро-Премьер»

Цифровой релиз: 27 июня 2018, «Warner Bros.»

Описание: Приматолог Дэвис Окойи предпочитает держаться подальше от людей и дружит с Джорджем, удивительно умным самцом гориллы, которого он воспитывал с самого рождения. Но вышедший из-под контроля генетический эксперимент превращает послушную обезьяну в яростного монстра. Более того, вскоре обнаруживается, что существуют и другие модифицированные хищники. Пока свежесозданные чудовища превращают в руины Северную Америку, стирая с лица Земли все, что попадается у них на пути, Окойи вместе с опальным генным инженером пытается изобрести антидот, прорываясь по бесконечному полю боя не только, чтобы предотвратить глобальную катастрофу, но и спасти бесстрашное существо, которое когда-то было его другом.
Качество исходника: WEB-DL 1080p (BlueBird)
Качество: WEB-DLRip
Тип: SD (576p)
Контейнер: M4V
Видео: H.264, 1024x432, 2.40:1, 2 200 Kbps, 23.976 fps

Аудио 1: Русский/Дублированный (iTunes), AAC / 2.0 / 128 Kbps / 44.1 KHz
Аудио 2: Английский/Оригинальная дорожка , AAC / 2.0 / 128 Kbps / 48.0 KHz

Субтитры 1: Русские форсированные
Субтитры 2: Русские полные
Субтитры 3: Английские полные
Sort Name: Rampage
XID: Apple:vendor_id:2018-666865
contentID: 1363164999
Copyright: © 2018 Warner Bros. Entertainment Inc.
Screenwriters: Райан Ингл, Карлтон Кьюз, Райан Кондал
Producers: Джанет Хили, Бретт Хоффман, Кристофер Меледандри
Director: Брэд Пейтон
Cast: Дуэйн Джонсон, Джеффри Дин Морган, Малин Акерман, Джо Манганьелло, Марли Шелтон, Уилл Юн Ли, Наоми Харрис, Джек Куэйд, Джейк Лэси, Бриэнн Хилл
Studio: Warner Bros.
Rating: 4
Long Description: Приматолог Дэвис Окойи предпочитает держаться подальше от людей и дружит с Джорджем, удивительно умным самцом гориллы, которого он воспитывал с самого рождения. Но вышедший из-под контроля генетический эксперимент превращает послушную обезьяну в яростного монстра. Более того, вскоре обнаруживается, что существуют и другие модифицированные хищники. Пока свежесозданные чудовища превращают в руины Северную Америку, стирая с лица Земли все, что попадается у них на пути, Окойи вместе с опальным генным инженером пытается изобрести антидот, прорываясь по бесконечному полю боя не только, чтобы предотвратить глобальную катастрофу, но и спасти бесстрашное существо, которое когда-то было его другом.
Description: Приматолог Дэвис Окойи предпочитает держаться подальше от людей и дружит с Джорджем, удивительно умным самцом гориллы, которого он воспитывал с самого рождения. Но вышедший из-под контроля генетический эксперимент превращает послушную обезьяну в яростного монстра. Более того, вскоре обнаруживается, что существуют и другие модифицированные хищники.
Release Date: 2018-04-13T07:00:00Z
Genre: Action & Adventure
Artist: Brad Peyton
Name: Rampage (2018)
General
Complete name : /Users/imac/HandBrake/Rampage.(SD).(pk).m4v
Format : MPEG-4
Codec ID : M4V
File size : 1.84 GiB
Duration : 1h 47mn
Overall bit rate mode : Variable
Overall bit rate : 2 458 Kbps
Movie name : Rampage (2018)
Performer : Brad Peyton
Director : Брэд Пейтон
Actor : Дуэйн Джонсон / Джеффри Дин Морган / Малин Акерман / Джо Манганьелло / Марли Шелтон / Уилл Юн Ли / Наоми Харрис / Джек Куэйд / Джейк Лэси / Бриэнн Хилл
Screenplay by : Райан Ингл / Карлтон Кьюз / Райан Кондал
Producer : Джанет Хили / Бретт Хоффман / Кристофер Меледандри
Production studio : Warner Bros.
Genre : Action & Adventure
ContentType : Short Film
Description : Приматолог Дэвис Окойи предпочитает держаться подальше от людей и дружит с Джорджем, удивительно умным самцом гориллы, которого он воспитывал с самого рождения. Но вышедший из-под контроля генетический эксперимент превращает послушную обезьяну в яростного монстра. Более того, вскоре обнаруживается, что существуют и другие модифицированные хищники.
Recorded date : UTC 2018-04-13 07:00:00
Encoded date : UTC 2018-06-28 09:39:27
Tagged date : UTC 2018-06-28 09:41:30
Copyright : © 2018 Warner Bros. Entertainment Inc.
Cover : Yes
Rating : None
Title/Sort : Rampage
LongDescription : Приматолог Дэвис Окойи предпочитает держаться подальше от людей и дружит с Джорджем, удивительно умным самцом гориллы, которого он воспитывал с самого рождения. Но вышедший из-под контроля генетический эксперимент превращает послушную обезьяну в яростного монстра. Более того, вскоре обнаруживается, что существуют и другие модифицированные хищники. Пока свежесозданные чудовища превращают в руины Северную Америку, стирая с лица Земли все, что попадается у них на пути, Окойи вместе с опальным генным инженером пытается изобрести антидот, прорываясь по бесконечному полю боя не только, чтобы предотвратить глобальную катастрофу, но и спасти бесстрашное существо, которое когда-то было его другом.
AppleStoreCatalogID : 1363164999
Vendor : Apple:vendor_id:2018-666865
ContentRating : mpaa|PG-13|300|

Video #1
ID : 1
Format : AVC
Format/Info : Advanced Video Codec
Format profile : [email protected]
Format settings, CABAC : Yes
Format settings, ReFrames : 9 frames
Codec ID : avc1
Codec ID/Info : Advanced Video Coding
Duration : 1h 47mn
Source duration : 1h 47mn
Bit rate : 2 200 Kbps
Width : 1 024 pixels
Height : 432 pixels
Display aspect ratio : 2.40:1
Frame rate mode : Variable
Frame rate : 23.976 fps
Minimum frame rate : 23.974 fps
Maximum frame rate : 23.981 fps
Color space : YUV
Chroma subsampling : 4:2:0
Bit depth : 8 bits
Scan type : Progressive
Bits/(Pixel*Frame) : 0.207
Stream size : 1.65 GiB (89%)
Source stream size : 1.65 GiB (89%)
Title : Main Program
Writing library : x264 core 155 r2901 7d0ff22
Encoding settings : cabac=1 / ref=9 / deblock=1:0:0 / analyse=0x3:0x113 / me=umh / subme=9 / psy=1 / psy_rd=1.00:0.00 / mixed_ref=1 / me_range=32 / chroma_me=1 / trellis=1 / 8x8dct=1 / cqm=0 / deadzone=21,11 / fast_pskip=1 / chroma_qp_offset=-2 / threads=13 / lookahead_threads=1 / sliced_threads=0 / nr=0 / decimate=1 / interlaced=0 / bluray_compat=0 / constrained_intra=0 / bframes=6 / b_pyramid=2 / b_adapt=2 / b_bias=0 / direct=1 / weightb=1 / open_gop=0 / weightp=2 / keyint=240 / keyint_min=24 / scenecut=40 / intra_refresh=0 / rc_lookahead=40 / rc=2pass / mbtree=1 / bitrate=2200 / ratetol=1.0 / qcomp=0.60 / qpmin=0 / qpmax=69 / qpstep=4 / cplxblur=20.0 / qblur=0.5 / ip_ratio=1.40 / aq=1:1.00
Language : English
Encoded date : UTC 2018-06-28 09:39:28
Tagged date : UTC 2018-06-28 09:39:33
Color range : Limited
Color primaries : BT.709
Transfer characteristics : BT.709
Matrix coefficients : BT.709

Video #2
ID : 8
Format : JPEG
Codec ID : jpeg
Duration : 1h 47mn
Bit rate mode : Variable
Bit rate : 517 bps
Width : 640 pixels
Height : 270 pixels
Display aspect ratio : 2.40:1
Frame rate mode : Variable
Frame rate : 0.002 fps
Minimum frame rate : 0.001 fps
Maximum frame rate : 0.002 fps
Color space : YUV
Chroma subsampling : 4:2:0
Bit depth : 8 bits
Compression mode : Lossy
Bits/(Pixel*Frame) : 1.496
Stream size : 347 KiB (0%)
Title : Chapter Images
Language : English
Encoded date : UTC 2018-06-28 09:39:39
Tagged date : UTC 2018-06-28 09:39:39

Audio #1
ID : 2
Format : AAC
Format/Info : Advanced Audio Codec
Format profile : LC
Codec ID : 40
Duration : 1h 47mn
Source duration : 1h 47mn
Bit rate mode : Variable
Bit rate : 125 Kbps
Maximum bit rate : 200 Kbps
Channel(s) : 2 channels
Channel positions : Front: L R
Sampling rate : 44.1 KHz
Compression mode : Lossy
Stream size : 96.1 MiB (5%)
Source stream size : 96.1 MiB (5%)
Title : Russian Stereo
Language : Russian
Encoded date : UTC 2018-06-28 09:39:28
Tagged date : UTC 2018-06-28 09:39:36

Audio #2
ID : 3
Format : AAC
Format/Info : Advanced Audio Codec
Format profile : LC
Codec ID : 40
Duration : 1h 47mn
Source duration : 1h 47mn
Bit rate mode : Variable
Bit rate : 125 Kbps
Maximum bit rate : 186 Kbps
Channel(s) : 2 channels
Channel positions : Front: L R
Sampling rate : 48.0 KHz
Compression mode : Lossy
Stream size : 96.1 MiB (5%)
Source stream size : 96.1 MiB (5%)
Title : English Stereo
Language : English
Encoded date : UTC 2018-06-28 09:39:28
Tagged date : UTC 2018-06-28 09:39:36

Text #1
ID : 4
Format : Timed Text
Muxing mode : sbtl
Codec ID : tx3g
Duration : 1h 32mn
Bit rate mode : Variable
Bit rate : 3 bps
Stream size : 1.86 KiB (0%)
Title : Russian forced
Language : Russian
Encoded date : UTC 2018-06-28 09:39:28
Tagged date : UTC 2018-06-28 09:39:28

Text #2
ID : 5
Format : Timed Text
Muxing mode : sbtl
Codec ID : tx3g
Duration : 1h 47mn
Bit rate mode : Variable
Bit rate : 93 bps
Stream size : 72.9 KiB (0%)
Title : Russian full
Language : Russian
Encoded date : UTC 2018-06-28 09:39:28
Tagged date : UTC 2018-06-28 09:39:29

Text #3
ID : 6
Format : Timed Text
Muxing mode : sbtl
Codec ID : tx3g
Duration : 1h 39mn
Bit rate mode : Variable
Bit rate : 65 bps
Stream size : 47.0 KiB (0%)
Title : English full
Language : English
Encoded date : UTC 2018-06-28 09:39:28
Tagged date : UTC 2018-06-28 09:39:29

Menu #1
00:00:00.000 : 1
00:12:58.000 : 2
00:19:56.000 : 3
00:29:53.000 : 4
00:40:35.000 : 5
00:49:10.000 : 6
01:02:38.000 : 7
01:10:37.000 : 8
01:20:10.000 : 9
01:29:23.000 : 10
01:39:42.000 : 11

Menu #2
ID : 7
Codec ID : text
Duration : 1h 47mn
Language : English
Encoded date : UTC 2018-06-28 09:39:36
Tagged date : UTC 2018-06-28 09:39:36
00:00:00.000 : 1
00:12:58.000 : 2
00:19:56.000 : 3
00:29:53.000 : 4
00:40:35.000 : 5
00:49:10.000 : 6
01:02:38.000 : 7
01:10:37.000 : 8
01:20:10.000 : 9
01:29:23.000 : 10
01:39:42.000 : 11
Bit rate mode : VBR
x264 [info]: frame I:1637  Avg QP:13.95  size: 67506
x264 [info]: frame P:45611 Avg QP:17.05  size: 21104
x264 [info]: frame B:107015 Avg QP:19.49  size:  6504
x264 [info]: consecutive B-frames:  5.3%  7.7% 10.6% 59.3%  7.6%  8.2%  1.2%
x264 [info]: mb I  I16..4:  7.6% 65.6% 26.8%
x264 [info]: mb P  I16..4:  1.8% 12.6%  3.1%  P16..4: 35.6% 26.3% 14.2%  0.0%  0.0%    skip: 6.4%
x264 [info]: mb B  I16..4:  0.1%  1.5%  0.4%  B16..8: 40.0% 11.9%  3.1%  direct: 5.4%  skip:37.4%  L0:40.4% L1:45.9% BI:13.6%
x264 [info]: 8x8 transform intra:71.0% inter:66.2%
x264 [info]: coded y,uvDC,uvAC intra: 85.7% 75.4% 44.5% inter: 30.1% 17.4% 1.7%
x264 [info]: i16 v,h,dc,p: 22% 17%  8% 53%
x264 [info]: i8 v,h,dc,ddl,ddr,vr,hd,vl,hu: 10%  9%  5%  9% 14% 14% 14% 12% 14%
x264 [info]: i4 v,h,dc,ddl,ddr,vr,hd,vl,hu: 10%  9%  3%  9% 15% 15% 14% 12% 14%
x264 [info]: i8c dc,h,v,p: 39% 28% 19% 14%
x264 [info]: Weighted P-Frames: Y:2.6% UV:0.9%
x264 [info]: ref P L0: 58.6% 12.7% 13.1%  4.9%  3.5%  2.5%  2.0%  1.3%  1.3%  0.1%  0.0%
x264 [info]: ref B L0: 83.7%  8.5%  3.5%  1.6%  1.1%  0.8%  0.6%  0.2%
x264 [info]: ref B L1: 96.7%  3.3%
x264 [info]: kb/s:2199.66

Релиз подготовлен для просмотра на Apple TV, iPad, iPhone, iPod Touch.
Для просмотра данного релиза на компьютере с ОС Windows рекомендуется использовать VLC media player

Трекер:  [ 28-Июн-2018 13:06 ]

  

Скачать .torrent

Размер .torrent файла 37 KB


Размер: 1.84 GB
Хэш (hash) релиза: be9c8e2b1980bd17b84bcde6f082c8f1b9553392

Еще никто не оставлял запись к записи скачать торрент [iPad] Рэмпейдж Rampage . Будь первым!

!Обратная связь