Midnight Food Store | Un passo di troppo | Matt Houston

Скачать через торрент Рэмпейдж Rampage бесплатно русская версия torrent активатор

Статистика раздачи
Размер:  3.55 GB   |    Зарегистрирован:  19 дней   |    .torrent скачан:  45 раз   |   
Раздают:  1  
   
загрузка...
 
Автор Сообщение

Galfimbul

avatar Galfimbul


Рэмпейдж / Rampage
«Больше, чем скала»

6.242 / 10 6.30 / 10
Год выпуска: 2018
Страна: США
Жанр: Фантастика, боевик, приключения
Продолжительность: 01:47:14

Перевод: Дублированный (iTunes)
Оригинальная аудиодорожка: Есть
Cубтитры: Русские форсированные, Русские, Английские
Режиссёр: Брэд Пейтон
Сценарий: Райан Ингл, Карлтон Кьюз, Райан Кондал
Продюсер: Ричард Бренер, Майкл Диско, Тоби Эммерих
Оператор: Джарон Пресан
Композитор: Эндрю Локингтон
Художник: Бэрри Чусид, Лорел Бергман, Эллиотт Глик
Монтаж: Боб Дюксэй, Джим Мэй
В ролях: Дуэйн Джонсон, Наоми Харрис, Малин Акерман, Джеффри Дин Морган, Джейк Лэси, Джо Манганьелло, Марли Шелтон, П.Дж. Бирн, Деметриус Гросс, Джек Куэйд

Бюджет: $120 000 000
Сборы в России: $6 067 350

Мировая премьера: 11 апреля 2018
Премьера (РФ): 12 апреля 2018, «Каро-Премьер»

Цифровой релиз: 27 июня 2018, «Warner Bros.»

Описание: Приматолог Дэвис Окойи предпочитает держаться подальше от людей и дружит с Джорджем, удивительно умным самцом гориллы, которого он воспитывал с самого рождения. Но вышедший из-под контроля генетический эксперимент превращает послушную обезьяну в яростного монстра. Более того, вскоре обнаруживается, что существуют и другие модифицированные хищники. Пока свежесозданные чудовища превращают в руины Северную Америку, стирая с лица Земли все, что попадается у них на пути, Окойи вместе с опальным генным инженером пытается изобрести антидот, прорываясь по бесконечному полю боя не только, чтобы предотвратить глобальную катастрофу, но и спасти бесстрашное существо, которое когда-то было его другом.
Качество исходника: WEB-DL 720p (NNMClub)
Качество: WEB-DL
Тип: HD (720p)
Контейнер: M4V
Видео: H.264, 1280x532, 2.40:1, 4 031 Kbps, 23.976 fps

Аудио 1: Русский/Дублированный (iTunes), AAC / 2.0 / 160 Kbps / 44.1 KHz
Аудио 2: Английский/Оригинальная дорожка , AAC / 2.0 / 160 Kbps / 48.0 KHz
Аудио 3: Английский/Оригинальная дорожка , AC-3 / 5.1 / 384 Kbps / 48.0 KHz

Субтитры 1: Русские форсированные
Субтитры 2: Русские полные
Субтитры 3: Английские полные
Sort Name: Rampage
XID: Apple:vendor_id:2018-666865
contentID: 1363164999
Copyright: © 2018 Warner Bros. Entertainment Inc.
Screenwriters: Райан Ингл, Карлтон Кьюз, Райан Кондал
Producers: Джанет Хили, Бретт Хоффман, Кристофер Меледандри
Director: Брэд Пейтон
Cast: Дуэйн Джонсон, Джеффри Дин Морган, Малин Акерман, Джо Манганьелло, Марли Шелтон, Уилл Юн Ли, Наоми Харрис, Джек Куэйд, Джейк Лэси, Бриэнн Хилл
Studio: Warner Bros.
Rating: 4
Long Description: Приматолог Дэвис Окойи предпочитает держаться подальше от людей и дружит с Джорджем, удивительно умным самцом гориллы, которого он воспитывал с самого рождения. Но вышедший из-под контроля генетический эксперимент превращает послушную обезьяну в яростного монстра. Более того, вскоре обнаруживается, что существуют и другие модифицированные хищники. Пока свежесозданные чудовища превращают в руины Северную Америку, стирая с лица Земли все, что попадается у них на пути, Окойи вместе с опальным генным инженером пытается изобрести антидот, прорываясь по бесконечному полю боя не только, чтобы предотвратить глобальную катастрофу, но и спасти бесстрашное существо, которое когда-то было его другом.
Description: Приматолог Дэвис Окойи предпочитает держаться подальше от людей и дружит с Джорджем, удивительно умным самцом гориллы, которого он воспитывал с самого рождения. Но вышедший из-под контроля генетический эксперимент превращает послушную обезьяну в яростного монстра. Более того, вскоре обнаруживается, что существуют и другие модифицированные хищники.
Release Date: 2018-04-13T07:00:00Z
Genre: Action & Adventure
Artist: Brad Peyton
Name: Rampage (2018)
General
Complete name : /Users/imac/HandBrake/Rampage.WEB-DL.720p.m4v
Format : MPEG-4
Codec ID : M4V
File size : 3.55 GiB
Duration : 1h 47mn
Overall bit rate mode : Variable
Overall bit rate : 4 738 Kbps
Movie name : Rampage (2018)
Performer : Brad Peyton
Director : Брэд Пейтон
Actor : Дуэйн Джонсон / Джеффри Дин Морган / Малин Акерман / Джо Манганьелло / Марли Шелтон / Уилл Юн Ли / Наоми Харрис / Джек Куэйд / Джейк Лэси / Бриэнн Хилл
Screenplay by : Райан Ингл / Карлтон Кьюз / Райан Кондал
Producer : Джанет Хили / Бретт Хоффман / Кристофер Меледандри
Production studio : Warner Bros.
Genre : Action & Adventure
ContentType : Short Film
Description : Приматолог Дэвис Окойи предпочитает держаться подальше от людей и дружит с Джорджем, удивительно умным самцом гориллы, которого он воспитывал с самого рождения. Но вышедший из-под контроля генетический эксперимент превращает послушную обезьяну в яростного монстра. Более того, вскоре обнаруживается, что существуют и другие модифицированные хищники.
Recorded date : UTC 2018-04-13 07:00:00
Encoded date : UTC 2018-06-27 22:34:52
Tagged date : UTC 2018-06-27 22:36:25
Copyright : © 2018 Warner Bros. Entertainment Inc.
Cover : Yes
Rating : None
Title/Sort : Rampage
LongDescription : Приматолог Дэвис Окойи предпочитает держаться подальше от людей и дружит с Джорджем, удивительно умным самцом гориллы, которого он воспитывал с самого рождения. Но вышедший из-под контроля генетический эксперимент превращает послушную обезьяну в яростного монстра. Более того, вскоре обнаруживается, что существуют и другие модифицированные хищники. Пока свежесозданные чудовища превращают в руины Северную Америку, стирая с лица Земли все, что попадается у них на пути, Окойи вместе с опальным генным инженером пытается изобрести антидот, прорываясь по бесконечному полю боя не только, чтобы предотвратить глобальную катастрофу, но и спасти бесстрашное существо, которое когда-то было его другом.
AppleStoreCatalogID : 1363164999
Vendor : Apple:vendor_id:2018-666865
ContentRating : mpaa|PG-13|300|

Video #1
ID : 1
Format : AVC
Format/Info : Advanced Video Codec
Format profile : [email protected]
Format settings, CABAC : No
Format settings, ReFrames : 2 frames
Codec ID : avc1
Codec ID/Info : Advanced Video Coding
Duration : 1h 47mn
Bit rate : 4 031 Kbps
Width : 1 280 pixels
Height : 532 pixels
Display aspect ratio : 2.40:1
Frame rate mode : Variable
Frame rate : 23.976 fps
Minimum frame rate : 23.810 fps
Maximum frame rate : 24.390 fps
Color space : YUV
Chroma subsampling : 4:2:0
Bit depth : 8 bits
Scan type : Progressive
Bits/(Pixel*Frame) : 0.247
Stream size : 3.02 GiB (85%)
Title : Main Program
Language : English
Encoded date : UTC 2018-06-27 22:34:52
Tagged date : UTC 2018-06-27 22:35:00
Color range : Limited
Color primaries : BT.709
Transfer characteristics : BT.709
Matrix coefficients : BT.709

Video #2
ID : 9
Format : JPEG
Codec ID : jpeg
Duration : 1h 47mn
Bit rate mode : Variable
Bit rate : 527 bps
Width : 640 pixels
Height : 266 pixels
Display aspect ratio : 2.40:1
Frame rate mode : Variable
Frame rate : 0.002 fps
Minimum frame rate : 0.001 fps
Maximum frame rate : 0.002 fps
Color space : YUV
Chroma subsampling : 4:2:0
Bit depth : 8 bits
Compression mode : Lossy
Bits/(Pixel*Frame) : 1.548
Stream size : 354 KiB (0%)
Title : Chapter Images
Language : English
Encoded date : UTC 2018-06-27 22:35:06
Tagged date : UTC 2018-06-27 22:35:07

Audio #1
ID : 2
Format : AAC
Format/Info : Advanced Audio Codec
Format profile : LC
Codec ID : 40
Duration : 1h 47mn
Source duration : 1h 47mn
Bit rate mode : Variable
Bit rate : 156 Kbps
Maximum bit rate : 257 Kbps
Channel(s) : 2 channels
Channel positions : Front: L R
Sampling rate : 44.1 KHz
Compression mode : Lossy
Stream size : 120 MiB (3%)
Source stream size : 120 MiB (3%)
Title : Russian Stereo
Language : Russian
Encoded date : UTC 2018-06-27 22:34:53
Tagged date : UTC 2018-06-27 22:35:03

Audio #2
ID : 3
Format : AAC
Format/Info : Advanced Audio Codec
Format profile : LC
Codec ID : 40
Duration : 1h 47mn
Source duration : 1h 47mn
Bit rate mode : Variable
Bit rate : 158 Kbps
Maximum bit rate : 219 Kbps
Channel(s) : 2 channels
Channel positions : Front: L R
Sampling rate : 48.0 KHz
Compression mode : Lossy
Stream size : 121 MiB (3%)
Source stream size : 121 MiB (3%)
Title : English Stereo
Language : English
Encoded date : UTC 2018-06-27 22:34:53
Tagged date : UTC 2018-06-27 22:35:03

Audio #3
ID : 4
Format : AC-3
Format/Info : Audio Coding 3
Mode extension : CM (complete main)
Format settings, Endianness : Big
Codec ID : ac-3
Duration : 1h 47mn
Bit rate mode : Constant
Bit rate : 384 Kbps
Channel(s) : 6 channels
Channel positions : Front: L C R, Side: L R, LFE
Sampling rate : 48.0 KHz
Bit depth : 16 bits
Compression mode : Lossy
Stream size : 295 MiB (8%)
Title : English DD 5.1
Language : English
Encoded date : UTC 2018-06-27 22:34:53
Tagged date : UTC 2018-06-27 22:35:03

Text #1
ID : 5
Format : Timed Text
Muxing mode : sbtl
Codec ID : tx3g
Duration : 1h 32mn
Bit rate mode : Variable
Bit rate : 3 bps
Stream size : 1.86 KiB (0%)
Title : Russian forced
Language : Russian
Encoded date : UTC 2018-06-27 22:34:53
Tagged date : UTC 2018-06-27 22:35:00

Text #2
ID : 6
Format : Timed Text
Muxing mode : sbtl
Codec ID : tx3g
Duration : 1h 47mn
Bit rate mode : Variable
Bit rate : 93 bps
Stream size : 72.9 KiB (0%)
Title : Russian full
Language : Russian
Encoded date : UTC 2018-06-27 22:34:53
Tagged date : UTC 2018-06-27 22:35:03

Text #3
ID : 7
Format : Timed Text
Muxing mode : sbtl
Codec ID : tx3g
Duration : 1h 39mn
Bit rate mode : Variable
Bit rate : 65 bps
Stream size : 47.0 KiB (0%)
Title : English full
Language : English
Encoded date : UTC 2018-06-27 22:34:53
Tagged date : UTC 2018-06-27 22:35:03

Menu #1
00:00:00.000 : 1
00:12:58.000 : 2
00:19:56.000 : 3
00:29:53.000 : 4
00:40:35.000 : 5
00:49:10.000 : 6
01:02:38.000 : 7
01:10:37.000 : 8
01:20:10.000 : 9
01:29:23.000 : 10
01:39:42.000 : 11

Menu #2
ID : 8
Codec ID : text
Duration : 1h 47mn
Language : English
Encoded date : UTC 2018-06-27 22:35:04
Tagged date : UTC 2018-06-27 22:35:04
00:00:00.000 : 1
00:12:58.000 : 2
00:19:56.000 : 3
00:29:53.000 : 4
00:40:35.000 : 5
00:49:10.000 : 6
01:02:38.000 : 7
01:10:37.000 : 8
01:20:10.000 : 9
01:29:23.000 : 10
01:39:42.000 : 11
Bit rate mode : VBR

Релиз подготовлен для просмотра на Apple TV, iPad, iPhone, iPod Touch.
Для просмотра данного релиза на компьютере с ОС Windows рекомендуется использовать VLC media player

Трекер:  [ 28-Июн-2018 02:06 ]

  

Скачать .torrent

Размер .torrent файла 36 KB


Размер: 3.55 GB
Хэш (hash) релиза: 701854b566f208e77326fcee3ae45aad861a4ad1

Еще никто не оставлял запись к записи скачать торрент Рэмпейдж Rampage . Будь первым!

!Обратная связь