Where Is Kyra (2017) BluRay 1080p DTS-HDMA5.1 x264-MTeam | Chapter 320 | 25 Years

Скачать через торрент [ATV3] Невидимый гость Contratiempo бесплатно русская версия torrent активатор

Статистика раздачи
Размер:  6.92 GB   |    Зарегистрирован:  26 дней   |    .torrent скачан:  18 раз   |   
Раздают:  1  
   
загрузка...
 
Автор Сообщение

Galfimbul

avatar Galfimbul


Невидимый гость / Contratiempo
«У каждой истории две стороны. Правда - только одна»

7.639 / 10 8.10 / 10
Год выпуска: 2016
Страна: Испания
Жанр: Триллер, криминал, детектив
Продолжительность: 01:46:02

Перевод: Дублированный (iTunes)
Оригинальная аудиодорожка: Есть
Cубтитры: Русские, Английские
Режиссёр: Ориол Паоло
Сценарий: Ориол Паоло
Продюсер: Мерседес Гамеро, Адриан Герра, Микель Лехарса
Оператор: Чави Хименес
Композитор: Фернандо Веласкес
Художник: Бальтер Гальярт, Eva Torres, Miguel Cervera
Монтаж: Хауме Марти
В ролях: Марио Касас, Ана Вахенер, Хосе Коронадо, Барбара Ленни, Франсеск Орелья, Пако Тоус, Давид Сельвас, Иньиго Гастези, Сан Еламос, Манель Дуэсо

Бюджет: €4 000 000
Сборы в России: $235 027

Мировая премьера: 23 сентября 2016
Премьера (РФ): 31 мая 2018, «ПРОвзгляд»

Цифровой релиз: 25 июня 2018, «НД Плэй»

Описание: Молодого бизнесмена Адриана Дориа обвиняют в убийстве любовницы, и он решает воспользоваться услугами Вирджинии Гудман, лучшего в стране адвоката. Накануне судебного заседания они встречаются для разработки стратегии защиты. Но чтобы выяснить правду, Вирджинии придется пойти на неожиданные меры.
Качество исходника: Blu-Ray (BlueBird)
Качество: BDRip
Тип: HD (1080p)
Контейнер: M4V
Видео: H.264, 1920x800, 2.40:1, 8 000 Kbps, 23.976 fps

Аудио 1: Русский/Дублированный (iTunes), AAC / 2.0 / 160 Kbps / 48.0 KHz
Аудио 2: Испанский/Оригинальная дорожка , AAC / 2.0 / 160 Kbps / 48.0 KHz
Аудио 3: Русский/Дублированный (iTunes), AC-3 / 5.1 / 384 Kbps / 48.0 KHz
Аудио 4: Испанский/Оригинальная дорожка , AC-3 / 5.1 / 640 Kbps / 48.0 KHz

Субтитры 1: Русские полные
Субтитры 2: Английские полные
Sort Name: Contratiempo
XID: Apple:vendor_id:2016-959365
contentID: 1190143686
Copyright: © 2016 Warner Bros. Entertainment. All rights reserved.
Screenwriters: Ориол Паоло
Producers: Мерседес Гамеро, Адриан Герра, Микель Лехарса
Director: Ориол Паоло
Cast: Марио Касас, Ана Вахенер, Хосе Коронадо, Барбара Ленни, Франсеск Орелья, Пако Тоус, Давид Сельвас, Иньиго Гастези, Сан Еламос, Манель Дуэсо
Studio: Warnes Bros
Rating: 0
Long Description: В один прекрасный день молодой бизнесмен Эдриан Дориа просыпается в закрытом изнутри номере отеля рядом с бездыханным телом своей любовницы. Его обвиняют в убийстве, но он, не считая себя виновным, решает воспользоваться услугами Вирджинии Гудман, лучшего в стране специалиста по выходу из самых сложных ситуаций. В течение одной ночи консультант и её клиент будут работать, чтобы найти разумное опровержение обвинению, и, тем самым, высвободить его из тюрьмы.
Description: В один прекрасный день молодой бизнесмен Эдриан Дориа просыпается в закрытом изнутри номере отеля рядом с бездыханным телом своей любовницы. Его обвиняют в убийстве, но он, не считая себя виновным, решает воспользоваться услугами Вирджинии Гудман, лучшего в стране специалиста по выходу из самых сложных ситуаций...
Release Date: 2016-09-23T08:00:00Z
Genre: Thriller
Artist: Oriol Paulo
Name: Contratiempo (2017)
General
Complete name                            : /Users/imac/HandBrake/Contratiempo (1080p HD).m4v
Format                                   : MPEG-4
Codec ID                                 : M4V  (M4V /M4A /mp42/isom)
File size                                : 6.92 GiB
Duration                                 : 1h 46mn
Overall bit rate mode                    : Variable
Overall bit rate                         : 9 343 Kbps
Movie name                               : Contratiempo (2017)
Performer                                : Oriol Paulo
Director                                 : Ориол Паоло
Actor                                    : Марио Касас / Ана Вахенер / Хосе Коронадо / Барбара Ленни / Франсеск Орелья / Пако Тоус / Давид Сельвас / Иньиго Гастези / Сан Еламос / Манель Дуэсо
Screenplay by                            : Ориол Паоло
Producer                                 : Мерседес Гамеро / Адриан Герра / Микель Лехарса
Production studio                        : Warnes Bros
Genre                                    : Thriller
ContentType                              : Short Film
Description                              : В один прекрасный день молодой бизнесмен Эдриан Дориа просыпается в закрытом изнутри номере отеля рядом с бездыханным телом своей любовницы. Его обвиняют в убийстве, но он, не считая себя виновным, решает воспользоваться услугами Вирджинии Гудман, лучшего в стране специалиста по выходу из самых сложных ситуаций...
Recorded date                            : UTC 2016-09-23 08:00:00
Encoded date                             : UTC 2018-06-27 09:02:07
Tagged date                              : UTC 2018-06-27 09:05:01
Copyright                                : © 2016 Warner Bros. Entertainment. All rights reserved.
Cover                                    : Yes
Rating                                   : None
Title/Sort                               : Contratiempo
LongDescription                          : В один прекрасный день молодой бизнесмен Эдриан Дориа просыпается в закрытом изнутри номере отеля рядом с бездыханным телом своей любовницы. Его обвиняют в убийстве, но он, не считая себя виновным, решает воспользоваться услугами Вирджинии Гудман, лучшего в стране специалиста по выходу из самых сложных ситуаций. В течение одной ночи консультант и её клиент будут работать, чтобы найти разумное опровержение обвинению, и, тем самым, высвободить его из тюрьмы.
AppleStoreCatalogID                      : 1190143686
Vendor                                   : Apple:vendor_id:2016-959365
ContentRating                            : mpaa|Unrated|???|

Video #1
ID                                       : 1
Format                                   : AVC
Format/Info                              : Advanced Video Codec
Format profile                           : [email protected]
Format settings                          : CABAC / 4 Ref Frames
Format settings, CABAC                   : Yes
Format settings, ReFrames                : 4 frames
Codec ID                                 : avc1
Codec ID/Info                            : Advanced Video Coding
Duration                                 : 1h 46mn
Source duration                          : 1h 46mn
Bit rate                                 : 8 000 Kbps
Width                                    : 1 920 pixels
Height                                   : 800 pixels
Display aspect ratio                     : 2.40:1
Frame rate mode                          : Variable
Frame rate                               : 23.976 fps
Minimum frame rate                       : 23.810 fps
Maximum frame rate                       : 23.981 fps
Color space                              : YUV
Chroma subsampling                       : 4:2:0
Bit depth                                : 8 bits
Scan type                                : Progressive
Bits/(Pixel*Frame)                       : 0.217
Stream size                              : 5.92 GiB (86%)
Source stream size                       : 5.92 GiB (86%)
Title                                    : Main Program
Writing library                          : x264 core 155 r2901 7d0ff22
Encoding settings                        : cabac=1 / ref=4 / deblock=1:-2:-2 / analyse=0x3:0x133 / me=umh / subme=10 / psy=1 / psy_rd=1.00:0.15 / mixed_ref=1 / me_range=32 / chroma_me=1 / trellis=2 / 8x8dct=1 / cqm=0 / deadzone=21,11 / fast_pskip=1 / chroma_qp_offset=-3 / threads=25 / lookahead_threads=6 / sliced_threads=0 / nr=0 / decimate=0 / interlaced=0 / bluray_compat=0 / constrained_intra=0 / bframes=16 / b_pyramid=2 / b_adapt=2 / b_bias=0 / direct=3 / weightb=1 / open_gop=0 / weightp=2 / keyint=240 / keyint_min=24 / scenecut=40 / intra_refresh=0 / rc_lookahead=40 / rc=2pass / mbtree=1 / bitrate=8000 / ratetol=1.0 / qcomp=0.70 / qpmin=0 / qpmax=69 / qpstep=4 / cplxblur=20.0 / qblur=0.5 / ip_ratio=1.40 / aq=1:1.00
Language                                 : Spanish
Encoded date                             : UTC 2018-06-27 09:02:07
Tagged date                              : UTC 2018-06-27 09:02:24
Color range                              : Limited
Color primaries                          : BT.709
Transfer characteristics                 : BT.709
Matrix coefficients                      : BT.709
Menus                                    : 8,9

Video #2
ID                                       : 9
Format                                   : JPEG
Codec ID                                 : jpeg
Duration                                 : 1h 46mn
Bit rate mode                            : Variable
Bit rate                                 : 366 bps
Width                                    : 640 pixels
Height                                   : 266 pixels
Display aspect ratio                     : 2.40:1
Frame rate mode                          : Variable
Frame rate                               : 0.002 fps
Minimum frame rate                       : 0.001 fps
Maximum frame rate                       : 0.004 fps
Color space                              : YUV
Chroma subsampling                       : 4:2:0
Bit depth                                : 8 bits
Compression mode                         : Lossy
Bits/(Pixel*Frame)                       : 1.075
Stream size                              : 268 KiB (0%)
Title                                    : Chapter Images
Language                                 : Spanish
Default                                  : No
Encoded date                             : UTC 2018-06-27 09:02:34
Tagged date                              : UTC 2018-06-27 09:02:34
Menu For                                 : 1
ColorSpace_ICC                           : RGB

Audio #1
ID                                       : 2
Format                                   : AAC
Format/Info                              : Advanced Audio Codec
Format profile                           : LC
Codec ID                                 : mp4a-40-2
Duration                                 : 1h 46mn
Source duration                          : 1h 46mn
Bit rate mode                            : Variable
Bit rate                                 : 157 Kbps
Maximum bit rate                         : 221 Kbps
Channel(s)                               : 2 channels
Channel positions                        : Front: L R
Sampling rate                            : 48.0 KHz
Frame rate                               : 46.875 fps (1024 SPF)
Compression mode                         : Lossy
Stream size                              : 119 MiB (2%)
Source stream size                       : 119 MiB (2%)
Title                                    : Russian Stereo
Language                                 : Russian
Default                                  : Yes
Alternate group                          : 1
Encoded date                             : UTC 2018-06-27 09:02:07
Tagged date                              : UTC 2018-06-27 09:02:28
Fallback From                            : 4
Menus                                    : 8

Audio #2
ID                                       : 3
Format                                   : AAC
Format/Info                              : Advanced Audio Codec
Format profile                           : LC
Codec ID                                 : mp4a-40-2
Duration                                 : 1h 46mn
Source duration                          : 1h 46mn
Bit rate mode                            : Variable
Bit rate                                 : 157 Kbps
Maximum bit rate                         : 237 Kbps
Channel(s)                               : 2 channels
Channel positions                        : Front: L R
Sampling rate                            : 48.0 KHz
Frame rate                               : 46.875 fps (1024 SPF)
Compression mode                         : Lossy
Stream size                              : 119 MiB (2%)
Source stream size                       : 119 MiB (2%)
Title                                    : Spanish Stereo
Language                                 : Spanish
Default                                  : No
Alternate group                          : 1
Encoded date                             : UTC 2018-06-27 09:02:07
Tagged date                              : UTC 2018-06-27 09:02:28
Fallback From                            : 5

Audio #3
ID                                       : 4
Format                                   : AC-3
Format/Info                              : Audio Coding 3
Codec ID                                 : ac-3
Duration                                 : 1h 46mn
Bit rate mode                            : Constant
Bit rate                                 : 384 Kbps
Channel(s)                               : 6 channels
Channel positions                        : Front: L C R, Side: L R, LFE
Sampling rate                            : 48.0 KHz
Frame rate                               : 31.250 fps (1536 SPF)
Bit depth                                : 16 bits
Compression mode                         : Lossy
Stream size                              : 291 MiB (4%)
Title                                    : Russian DD 5.1
Language                                 : Russian
Service kind                             : Complete Main
Default                                  : Inherited From: 2
Alternate group                          : 1
Encoded date                             : UTC 2018-06-27 09:02:07
Tagged date                              : UTC 2018-06-27 09:02:17
Fallback To                              : 2

Audio #4
ID                                       : 5
Format                                   : AC-3
Format/Info                              : Audio Coding 3
Codec ID                                 : ac-3
Duration                                 : 1h 46mn
Bit rate mode                            : Constant
Bit rate                                 : 640 Kbps
Channel(s)                               : 6 channels
Channel positions                        : Front: L C R, Side: L R, LFE
Sampling rate                            : 48.0 KHz
Frame rate                               : 31.250 fps (1536 SPF)
Bit depth                                : 16 bits
Compression mode                         : Lossy
Stream size                              : 485 MiB (7%)
Title                                    : Spanish DD 5.1
Language                                 : Spanish
Service kind                             : Complete Main
Default                                  : No
Alternate group                          : 1
Encoded date                             : UTC 2018-06-27 09:02:07
Tagged date                              : UTC 2018-06-27 09:02:17
Fallback To                              : 3

Text #1
ID                                       : 6
Format                                   : Timed Text
Muxing mode                              : sbtl
Codec ID                                 : tx3g
Duration                                 : 1h 41mn
Bit rate mode                            : Variable
Bit rate                                 : 118 bps
Stream size                              : 87.8 KiB (0%)
Title                                    : Russian full
Language                                 : Russian
Default                                  : Yes
Forced                                   : No
Alternate group                          : 2
Encoded date                             : UTC 2018-06-27 09:02:07
Tagged date                              : UTC 2018-06-27 09:02:07

Text #2
ID                                       : 7
Format                                   : Timed Text
Muxing mode                              : sbtl
Codec ID                                 : tx3g
Duration                                 : 1h 41mn
Bit rate mode                            : Variable
Bit rate                                 : 63 bps
Stream size                              : 47.0 KiB (0%)
Title                                    : English full
Language                                 : English
Default                                  : No
Forced                                   : No
Alternate group                          : 2
Encoded date                             : UTC 2018-06-27 09:02:07
Tagged date                              : UTC 2018-06-27 09:02:07

Menu #1
00:00:00.000                             : 00:00:00.000
00:08:11.326                             : 00:08:11.292
00:16:51.598                             : 00:16:51.583
00:24:57.459                             : 00:24:57.458
00:33:23.757                             : 00:33:23.750
00:42:03.903                             : 00:42:03.875
00:50:58.522                             : 00:50:58.500
01:00:14.870                             : 01:00:14.833
01:08:56.728                             : 01:08:56.708
01:18:00.772                             : 01:18:00.750
01:22:04.975                             : 01:22:04.958
01:30:27.395                             : 01:30:27.375

Menu #2
ID                                       : 8
Codec ID                                 : text
Duration                                 : 1h 46mn
Language                                 : Spanish
Encoded date                             : UTC 2018-06-27 09:02:28
Tagged date                              : UTC 2018-06-27 09:02:28
Bit rate mode                            : CBR
Menu For                                 : 2,1
00:00:00.000                             : 00:00:00.000
00:08:11.326                             : 00:08:11.292
00:16:51.598                             : 00:16:51.583
00:24:57.459                             : 00:24:57.458
00:33:23.757                             : 00:33:23.750
00:42:03.903                             : 00:42:03.875
00:50:58.522                             : 00:50:58.500
01:00:14.870                             : 01:00:14.833
01:08:56.728                             : 01:08:56.708
01:18:00.772                             : 01:18:00.750
01:22:04.975                             : 01:22:04.958
01:30:27.395                             : 01:30:27.375
x264 [info]: frame I:1315  Avg QP: 8.33  size:244442
x264 [info]: frame P:31493 Avg QP:11.99  size: 86114
x264 [info]: frame B:119752 Avg QP:12.67  size: 27780
x264 [info]: consecutive B-frames:  2.4%  2.0%  9.1%  7.8%  4.8% 71.8%  1.0%  0.1%  0.3%  0.1%  0.0%  0.1%  0.0%  0.0%  0.1%  0.0%  0.3%
x264 [info]: mb I  I16..4: 31.8% 32.9% 35.3%
x264 [info]: mb P  I16..4:  6.9% 15.7%  5.4%  P16..4: 29.0% 15.9% 15.6%  0.9%  0.8%    skip: 9.8%
x264 [info]: mb B  I16..4:  1.6%  2.0%  0.4%  B16..8: 42.1% 14.5%  4.2%  direct: 5.4%  skip:29.8%  L0:48.6% L1:37.9% BI:13.4%
x264 [info]: 8x8 transform intra:52.2% inter:27.6%
x264 [info]: direct mvs  spatial:99.5% temporal:0.5%
x264 [info]: coded y,uvDC,uvAC intra: 79.2% 75.3% 69.6% inter: 22.2% 18.6% 13.3%
x264 [info]: i16 v,h,dc,p: 48% 12% 27% 13%
x264 [info]: i8 v,h,dc,ddl,ddr,vr,hd,vl,hu: 15% 14% 30%  6%  6%  7%  7%  7%  8%
x264 [info]: i4 v,h,dc,ddl,ddr,vr,hd,vl,hu: 15% 12% 16%  8% 10% 10%  9%  9%  9%
x264 [info]: i8c dc,h,v,p: 64% 16% 14%  6%
x264 [info]: Weighted P-Frames: Y:2.4% UV:1.2%
x264 [info]: ref P L0: 60.8%  5.7% 22.0% 11.2%  0.3%  0.0%
x264 [info]: ref B L0: 84.3% 12.9%  2.8%
x264 [info]: ref B L1: 94.0%  6.0%
x264 [info]: kb/s:7996.29

Релиз подготовлен для просмотра на Apple TV, iPad, iPhone, iPod Touch.
Для просмотра данного релиза на компьютере с ОС Windows рекомендуется использовать VLC media player

Трекер:  [ 27-Июн-2018 12:36 ]

  

Скачать .torrent

Размер .torrent файла 69 KB


Размер: 6.92 GB
Хэш (hash) релиза: 2483e02f65fbe2d27a32e474310d75d5db517c40

Еще никто не оставлял запись к записи скачать торрент [ATV3] Невидимый гость Contratiempo . Будь первым!

!Обратная связь